  0
SECTION
  2
HEADER
  9
$ACADVER
  1
AC1009
  9
$INSBASE
 10
0
 20
0
  9
$EXTMIN
 10
-148.270622091163
 20
-28.06562638005833
  9
$EXTMAX
 10
237.373779583505
 20
94.04314228182059
  9
$LIMMIN
 10
-148.270622091163
 20
-28.06562638005833
  9
$LIMMAX
 10
237.373779583505
 20
94.04314228182059
  9
$VIEWCTR
 10
10
 20
10
  9
$VIEWSIZE
 40
10
  9
$SNAPMODE
 70
0
  9
$SNAPUNIT
 10
1
 20
1
  9
$SNAPBASE
 10
0
 20
0
  9
$SNAPANG
 50
0
  9
$SNAPSTYLE
 70
0
  9
$SNAPISOPAIR
 70
0
  9
$GRIDMODE
 70
0
  9
$GRIDUNIT
 10
0
 20
0
  9
$ORTHOMODE
 70
0
  9
$REGENMODE
 70
1
  9
$FILLMODE
 70
1
  9
$QTEXTMODE
 70
0
  9
$DRAGMODE
 70
2
  9
$LTSCALE
 40
1
  9
$OSMODE
 70
0
  9
$ATTMODE
 70
1
  9
$TEXTSIZE
 40
3.5
  9
$TRACEWID
 40
0.5
  9
$TEXTSTYLE
  7
STANDARD
  9
$CLAYER
  8
0
  9
$CELTYPE
  6
BYLAYER
  9
$CECOLOR
 62
256
  9
$DIMSCALE
 40
1
  9
$DIMASZ
 40
0.18
  9
$DIMEXO
 40
0.0625
  9
$DIMDLI
 40
0.38
  9
$DIMRND
 40
0
  9
$DIMDLE
 40
0
  9
$DIMEXE
 40
0.18
  9
$DIMTP
 40
0
  9
$DIMTM
 40
0
  9
$DIMTXT
 40
0.18
  9
$DIMCEN
 40
0.09
  9
$DIMTSZ
 40
0
  9
$DIMTOL
 70
0
  9
$DIMLIM
 70
0
  9
$DIMTIH
 70
1
  9
$DIMTOH
 70
1
  9
$DIMSE1
 70
0
  9
$DIMSE2
 70
0
  9
$DIMTAD
 70
0
  9
$DIMZIN
 70
0
  9
$DIMBLK
  1

  9
$DIMASO
 70
1
  9
$DIMSHO
 70
1
  9
$DIMPOST
  1

  9
$DIMAPOST
  1

  9
$DIMALT
 70
0
  9
$DIMALTD
 70
2
  9
$DIMALTF
 40
25.4
  9
$DIMLFAC
 40
1
  9
$DIMTOFL
 70
0
  9
$DIMTVP
 40
0
  9
$DIMTIX
 70
0
  9
$DIMSOXD
 70
0
  9
$DIMSAH
 70
0
  9
$DIMBLK1
  1

  9
$DIMBLK2
  1

  9
$DIMSTYLE
  2
*UNNAMED
  9
$DIMCLRD
 70
0
  9
$DIMCLRE
 70
0
  9
$DIMCLRT
 70
0
  9
$DIMTFAC
 40
1
  9
$DIMGAP
 40
0.09
  9
$LUNITS
 70
2
  9
$LUPREC
 70
4
  9
$AXISMODE
 70
0
  9
$AXISUNIT
 10
0
 20
0
  9
$SKETCHINC
 40
0.1
  9
$FILLETRAD
 40
2
  9
$AUNITS
 70
0
  9
$AUPREC
 70
0
  9
$MENU
  1
ACAD
  9
$ELEVATION
 40
0
  9
$THICKNESS
 40
0
  9
$VIEWDIR
 10
0
 20
0
 30
1
  9
$LIMCHECK
 70
0
  9
$BLIPMODE
 70
1
  9
$CHAMFERA
 40
0
  9
$CHAMFERB
 40
0
  9
$FASTZOOM
 70
1
  9
$SKPOLY
 70
0
  9
$ANGBASE
 50
0
  9
$ANGDIR
 70
0
  9
$PDMODE
 70
0
  9
$PDSIZE
 40
0
  9
$PLINEWID
 40
0
  9
$COORDS
 70
2
  0
ENDSEC
  0
SECTION
  2
TABLES
  0
TABLE
  2
DIMSTYLE
 70
7
  0
DIMSTYLE
  2
DMST_1
 70
0
  3

  4

  5

  6

  7

 40
1
 41
3.2
 42
1
 43
7
 44
1
 45
0
 46
0
 47
0
 48
0
140
3.2
141
0
142
0
143
25.4
144
1
145
0
146
1
147
0.09
 71
0
 72
0
 73
0
 74
0
 75
0
 76
0
 77
1
 78
9
170
0
171
2
172
0
173
0
174
0
175
0
176
2
177
2
178
2
  0
DIMSTYLE
  2
DMST_2
 70
0
  3

  4

  5

  6

  7

 40
1
 41
3.2
 42
1
 43
7
 44
1
 45
0
 46
0
 47
0.5
 48
0.5
140
3.2
141
0
142
0
143
25.4
144
1
145
0
146
0.6
147
0.09
 71
1
 72
0
 73
0
 74
0
 75
0
 76
0
 77
1
 78
9
170
0
171
2
172
0
173
0
174
0
175
0
176
2
177
2
178
2
  0
DIMSTYLE
  2
DMST_3
 70
0
  3

  4

  5

  6

  7

 40
1
 41
3.2
 42
1
 43
7
 44
1
 45
0
 46
0
 47
0
 48
0.02
140
3.2
141
0
142
0
143
25.4
144
1
145
0
146
0.6
147
0.09
 71
1
 72
0
 73
0
 74
0
 75
0
 76
0
 77
1
 78
9
170
0
171
2
172
0
173
0
174
0
175
0
176
2
177
2
178
2
  0
DIMSTYLE
  2
DMST_4
 70
0
  3

  4

  5

  6

  7

 40
1
 41
3.2
 42
1
 43
7
 44
1
 45
0
 46
0
 47
0.3
 48
0.3
140
3.2
141
0
142
0
143
25.4
144
1
145
0
146
0.6
147
0.09
 71
1
 72
0
 73
0
 74
0
 75
0
 76
0
 77
1
 78
9
170
0
171
2
172
0
173
0
174
0
175
0
176
2
177
2
178
2
  0
DIMSTYLE
  2
DMST_5
 70
0
  3
)
  4

  5

  6

  7

 40
1
 41
3.2
 42
1
 43
7
 44
1
 45
0
 46
0
 47
0
 48
0
140
3.2
141
0
142
0
143
25.4
144
1
145
0
146
1
147
0.09
 71
0
 72
0
 73
0
 74
0
 75
0
 76
0
 77
1
 78
9
170
0
171
2
172
0
173
0
174
0
175
0
176
2
177
2
178
2
  0
DIMSTYLE
  2
DMST_6
 70
0
  3

  4

  5

  6

  7

 40
1
 41
3.5
 42
0.7
 43
7
 44
2
 45
0
 46
0
 47
0.3
 48
0.3
140
3.5
141
0
142
0
143
25.4
144
1
145
0
146
0.6
147
0.09
 71
1
 72
0
 73
0
 74
0
 75
0
 76
0
 77
1
 78
9
170
0
171
2
172
0
173
0
174
0
175
0
176
2
177
2
178
2
  0
DIMSTYLE
  2
DMST_7
 70
0
  3

  4

  5

  6

  7

 40
1
 41
3.2
 42
1
 43
7
 44
1
 45
0
 46
0
 47
0
 48
0
140
3.2
141
0
142
0
143
25.4
144
1
145
0
146
1
147
0.09
 71
0
 72
0
 73
1
 74
1
 75
0
 76
0
 77
1
 78
9
170
0
171
2
172
0
173
0
174
0
175
0
176
2
177
2
178
2
  0
ENDTAB
  0
TABLE
  2
LTYPE
 70
9
  0
LTYPE
  2
CONTINUOUS
 70
64
  3
Solid line
 72
65
 73
0
 40
0
  0
LTYPE
  2
BORDER
 70
64
  3
__ __ . __ __ .
 72
65
 73
6
 40
17.75993955080708
 49
5.074268443087737
 49
-2.537134221543869
 49
5.074268443087737
 49
-2.537134221543869
 49
0
 49
-2.537134221543869
  0
LTYPE
  2
CENTER
 70
64
  3
____ _ ____ _
 72
65
 73
4
 40
20.29707377235095
 49
12.68567110771934
 49
-2.537134221543869
 49
2.537134221543869
 49
-2.537134221543869
  0
LTYPE
  2
DASHDOT
 70
64
  3
__ . __ . __ .
 72
65
 73
4
 40
10.14853688617547
 49
5.074268443087737
 49
-2.537134221543869
 49
0
 49
-2.537134221543869
  0
LTYPE
  2
DASHED
 70
64
  3
__ __ __ __ __
 72
65
 73
2
 40
7.611402664631606
 49
5.074268443087737
 49
-2.537134221543869
  0
LTYPE
  2
DIVIDE
 70
64
  3
__ . . __ . . 
 72
65
 73
6
 40
12.68567110771934
 49
5.074268443087737
 49
-2.537134221543869
 49
0
 49
-2.537134221543869
 49
0
 49
-2.537134221543869
  0
LTYPE
  2
DOT
 70
64
  3
..............
 72
65
 73
4
 40
5.074268443087737
 49
0
 49
-2.537134221543869
 49
0
 49
-2.537134221543869
  0
LTYPE
  2
HIDDEN
 70
64
  3
_ _ _ _ _ _ _
 72
65
 73
2
 40
3.805701332315803
 49
2.537134221543869
 49
-1.268567110771934
  0
LTYPE
  2
PHANTOM
 70
64
  3
_____ _ _ _____ _ _ 
 72
65
 73
6
 40
25.37134221543869
 49
12.68567110771934
 49
-2.537134221543869
 49
2.537134221543869
 49
-2.537134221543869
 49
2.537134221543869
 49
-2.537134221543869
  0
ENDTAB
  0
TABLE
  2
LAYER
 70
3
  0
LAYER
  2
1
 70
0
 62
7
  6
CONTINUOUS
  0
LAYER
  2
0
 70
0
 62
7
  6
CONTINUOUS
  0
ENDTAB
  0
TABLE
  2
STYLE
 70
4
  0
STYLE
  2
STANDARD
 70
0
 40
0
 41
1
 50
0
 71
0
 42
3.5
  3
txt
  4

  0
STYLE
  2
SIMPLEX
 70
0
 40
0
 41
1
 50
0
 71
0
 42
3.5
  3
simplex
  4

  0
STYLE
  2
COMPLEX
 70
0
 40
0
 41
1
 50
0
 71
0
 42
3.5
  3
complex
  4

  0
STYLE
  2
ITALIC
 70
0
 40
0
 41
1
 50
0
 71
0
 42
3.5
  3
italic
  4

  0
ENDTAB
  0
TABLE
  2
VIEW
 70
0
  0
ENDTAB
  0
ENDSEC
  0
SECTION
  2
BLOCKS
  0
BLOCK
  8
1
  2
*D0
 70
1
 10
0
 20
0
 30
0
  0
LINE
  8
1
 62
2
 10
31.8
 20
65.5
 30
0
 11
75.8
 21
65.5
 31
0
  0
LINE
  8
1
 62
2
 10
75.8
 20
46
 30
0
 11
75.8
 21
66.5
 31
0
  0
LINE
  8
1
 62
2
 10
31.8
 20
45.5
 30
0
 11
31.8
 21
66.5
 31
0
  0
SOLID
  8
1
 62
2
 10
31.8
 20
65.5
 30
0
 11
35
 21
65.916
 31
0
 12
35
 22
65.084
 32
0
 13
35
 23
65.084
 33
0
  0
SOLID
  8
1
 62
2
 10
75.8
 20
65.5
 30
0
 11
72.59999999999999
 21
65.084
 31
0
 12
72.59999999999999
 22
65.916
 32
0
 13
72.59999999999999
 23
65.916
 33
0
  0
TEXT
  8
1
 62
2
 10
51.4
 20
66.5
 30
0
 40
3.2
  1
44
 41
0.9
  0
ENDBLK
  8
0
  0
BLOCK
  8
1
  2
*D1
 70
1
 10
0
 20
0
 30
0
  0
LINE
  8
1
 62
2
 10
-74.4424517716659
 20
15
 30
0
 11
-74.4424517716659
 21
0.0462090431505402
 31
0
  0
LINE
  8
1
 62
2
 10
-74.4424517716659
 20
15
 30
0
 11
-74.4424517716659
 21
25
 31
0
  0
LINE
  8
1
 62
2
 10
-102.438383645203
 20
25
 30
0
 11
-73.4424517716659
 21
25
 31
0
  0
LINE
  8
1
 62
2
 10
-80.65913767063398
 20
15
 30
0
 11
-73.4424517716659
 21
15
 31
0
  0
SOLID
  8
1
 62
2
 10
-74.4424517716659
 20
15
 30
0
 11
-74.8584517716659
 21
18.2
 31
0
 12
-74.0264517716659
 22
18.2
 32
0
 13
-74.0264517716659
 23
18.2
 33
0
  0
SOLID
  8
1
 62
2
 10
-74.4424517716659
 20
25
 30
0
 11
-74.0264517716659
 21
21.8
 31
0
 12
-74.8584517716659
 22
21.8
 32
0
 13
-74.8584517716659
 23
21.8
 33
0
  0
TEXT
  8
1
 62
2
 10
-75.4424517716659
 20
0.0462090431505402
 30
0
 40
3.2
  1
10
 50
90
 41
0.9
  0
TEXT
  8
1
 62
2
 10
-76.0824517716659
 20
5.48620904315054
 30
0
 40
1.92
  1
%%p0.5
 50
90
 41
0.9
  0
ENDBLK
  8
0
  0
BLOCK
  8
1
  2
*D2
 70
1
 10
0
 20
0
 30
0
  0
LINE
  8
1
 62
2
 10
-0.1999999999999993
 20
75.5
 30
0
 11
31.8
 21
75.5
 31
0
  0
LINE
  8
1
 62
2
 10
31.8
 20
45.50000000000001
 30
0
 11
31.8
 21
76.5
 31
0
  0
LINE
  8
1
 62
2
 10
-0.1999999999999993
 20
29.00000000000001
 30
0
 11
-0.1999999999999993
 21
76.5
 31
0
  0
SOLID
  8
1
 62
2
 10
-0.1999999999999993
 20
75.5
 30
0
 11
3.000000000000001
 21
75.916
 31
0
 12
3.000000000000001
 22
75.084
 32
0
 13
3.000000000000001
 23
75.084
 33
0
  0
SOLID
  8
1
 62
2
 10
31.8
 20
75.5
 30
0
 11
28.6
 21
75.084
 31
0
 12
28.6
 22
75.916
 32
0
 13
28.6
 23
75.916
 33
0
  0
TEXT
  8
1
 62
2
 10
13.4
 20
76.5
 30
0
 40
3.2
  1
32
 41
0.9
  0
ENDBLK
  8
0
  0
BLOCK
  8
1
  2
*D3
 70
1
 10
0
 20
0
 30
0
  0
LINE
  8
1
 62
2
 10
31.8
 20
65.5
 30
0
 11
38.2
 21
65.5
 31
0
  0
LINE
  8
1
 62
2
 10
26.8
 20
65.5
 30
0
 11
20.4
 21
65.5
 31
0
  0
LINE
  8
1
 62
2
 10
26.8
 20
65.5
 30
0
 11
31.8
 21
65.5
 31
0
  0
LINE
  8
1
 62
2
 10
31.8
 20
45.5
 30
0
 11
31.8
 21
66.5
 31
0
  0
LINE
  8
1
 62
2
 10
26.8
 20
34.99981600930902
 30
0
 11
26.8
 21
66.5
 31
0
  0
SOLID
  8
1
 62
2
 10
26.8
 20
65.5
 30
0
 11
23.6
 21
65.084
 31
0
 12
23.6
 22
65.916
 32
0
 13
23.6
 23
65.916
 33
0
  0
SOLID
  8
1
 62
2
 10
31.8
 20
65.5
 30
0
 11
35
 21
65.916
 31
0
 12
35
 22
65.084
 32
0
 13
35
 23
65.084
 33
0
  0
TEXT
  8
1
 62
2
 10
28.34
 20
66.5
 30
0
 40
3.2
  1
5
 41
0.9
  0
ENDBLK
  8
0
  0
BLOCK
  8
1
  2
*D4
 70
1
 10
0
 20
0
 30
0
  0
LINE
  8
1
 62
2
 10
-30.2
 20
33.99981600930903
 30
0
 11
-30.2
 21
46.8222685809956
 31
0
  0
LINE
  8
1
 62
2
 10
-30.2
 20
16.00018399069103
 30
0
 11
-30.2
 21
33.99981600930903
 31
0
  0
LINE
  8
1
 62
2
 10
25.80000000000001
 20
33.99981600930903
 30
0
 11
-31.2
 21
33.99981600930903
 31
0
  0
LINE
  8
1
 62
2
 10
25.80000000000001
 20
16.00018399069103
 30
0
 11
-31.2
 21
16.00018399069103
 31
0
  0
SOLID
  8
1
 62
2
 10
-30.2
 20
33.99981600930903
 30
0
 11
-29.784
 21
30.79981600930903
 31
0
 12
-30.616
 22
30.79981600930903
 32
0
 13
-30.616
 23
30.79981600930903
 33
0
  0
SOLID
  8
1
 62
2
 10
-30.2
 20
16.00018399069103
 30
0
 11
-30.616
 21
19.20018399069103
 31
0
 12
-29.784
 22
19.20018399069103
 32
0
 13
-29.784
 23
19.20018399069103
 33
0
  0
TEXT
  8
1
 62
2
 10
-31.2
 20
42.9822685809956
 30
0
 40
3.2
  1
18
 50
90
 41
0.9
  0
TEXT
  8
1
 62
2
 10
-31.2
 20
39.14226858099561
 30
0
 40
3.2
  1
%%c
 50
90
 41
0.9
  0
ENDBLK
  8
0
  0
BLOCK
  8
1
  2
*D5
 70
1
 10
0
 20
0
 30
0
  0
LINE
  8
1
 62
2
 10
-0.2000000000000028
 20
65.5
 30
0
 11
12.8
 21
65.5
 31
0
  0
LINE
  8
1
 62
2
 10
12.8
 20
29.00000000000001
 30
0
 11
12.8
 21
66.5
 31
0
  0
LINE
  8
1
 62
2
 10
-0.2000000000000028
 20
29.00000000000001
 30
0
 11
-0.2000000000000028
 21
66.5
 31
0
  0
SOLID
  8
1
 62
2
 10
-0.2000000000000028
 20
65.5
 30
0
 11
2.999999999999998
 21
65.916
 31
0
 12
2.999999999999998
 22
65.084
 32
0
 13
2.999999999999998
 23
65.084
 33
0
  0
SOLID
  8
1
 62
2
 10
12.8
 20
65.5
 30
0
 11
9.6
 21
65.084
 31
0
 12
9.6
 22
65.916
 32
0
 13
9.6
 23
65.916
 33
0
  0
TEXT
  8
1
 62
2
 10
4.379999999999999
 20
66.5
 30
0
 40
3.2
  1
13
 41
0.9
  0
ENDBLK
  8
0
  0
BLOCK
  8
1
  2
*D6
 70
1
 10
0
 20
0
 30
0
  0
LINE
  8
1
 62
2
 10
-20.2
 20
29.00024539811398
 30
0
 11
-20.2
 21
53.2134734258408
 31
0
  0
LINE
  8
1
 62
2
 10
-20.2
 20
21
 30
0
 11
-20.2
 21
29.00024539811398
 31
0
  0
LINE
  8
1
 62
2
 10
-20.2
 20
14.6
 30
0
 11
-20.2
 21
21
 31
0
  0
LINE
  8
1
 62
2
 10
17.18580273375919
 20
29.00024539811398
 30
0
 11
-21.2
 21
29.00024539811398
 31
0
  0
LINE
  8
1
 62
2
 10
-1.200000000000003
 20
21
 30
0
 11
-21.2
 21
21
 31
0
  0
SOLID
  8
1
 62
2
 10
-20.2
 20
21
 30
0
 11
-19.784
 21
17.8
 31
0
 12
-20.616
 22
17.8
 32
0
 13
-20.616
 23
17.8
 33
0
  0
SOLID
  8
1
 62
2
 10
-20.2
 20
29.00024539811398
 30
0
 11
-20.616
 21
32.20024539811399
 31
0
 12
-19.78400000000001
 22
32.20024539811399
 32
0
 13
-19.78400000000001
 23
32.20024539811399
 33
0
  0
TEXT
  8
1
 62
2
 10
-22
 20
42.92547342584081
 30
0
 40
3.2
  1
8
 50
90
 41
0.9
  0
TEXT
  8
1
 62
2
 10
-24.08
 20
46.4454734258408
 30
0
 40
1.92
  1
 0
 50
90
 41
0.9
  0
TEXT
  8
1
 62
2
 10
-21.2
 20
46.4454734258408
 30
0
 40
1.92
  1
-0.02
 50
90
 41
0.9
  0
TEXT
  8
1
 62
2
 10
-22
 20
39.0854734258408
 30
0
 40
3.2
  1
%%c
 50
90
 41
0.9
  0
ENDBLK
  8
0
  0
BLOCK
  8
1
  2
*D7
 70
1
 10
0
 20
0
 30
0
  0
LINE
  8
1
 62
2
 10
-145.4424517716659
 20
65.5
 30
0
 11
-84.4424517716659
 21
65.5
 31
0
  0
LINE
  8
1
 62
2
 10
-145.4424517716659
 20
41.5
 30
0
 11
-145.4424517716659
 21
66.5
 31
0
  0
LINE
  8
1
 62
2
 10
-84.4424517716659
 20
41.5
 30
0
 11
-84.4424517716659
 21
66.5
 31
0
  0
SOLID
  8
1
 62
2
 10
-145.4424517716659
 20
65.5
 30
0
 11
-142.2424517716659
 21
65.916
 31
0
 12
-142.2424517716659
 22
65.084
 32
0
 13
-142.2424517716659
 23
65.084
 33
0
  0
SOLID
  8
1
 62
2
 10
-84.4424517716659
 20
65.5
 30
0
 11
-87.6424517716659
 21
65.084
 31
0
 12
-87.6424517716659
 22
65.916
 32
0
 13
-87.6424517716659
 23
65.916
 33
0
  0
TEXT
  8
1
 62
2
 10
-111.8803777205269
 20
66.4155361917343
 30
0
 40
3.2
  1
61
 41
0.9
  0
TEXT
  8
1
 62
2
 10
-116.0215541911151
 20
66.4155361917343
 30
0
 40
3.2
  1
□
 41
0.9
  0
ENDBLK
  8
0
  0
BLOCK
  8
1
  2
*D8
 70
1
 10
0
 20
0
 30
0
  0
LINE
  8
1
 62
2
 10
-139.6924517716659
 20
55.5
 30
0
 11
-90.19245177166592
 21
55.5
 31
0
  0
LINE
  8
1
 62
2
 10
-90.19245177166592
 20
46.34999999999999
 30
0
 11
-90.19245177166592
 21
56.5
 31
0
  0
LINE
  8
1
 62
2
 10
-139.6924517716659
 20
46.35
 30
0
 11
-139.6924517716659
 21
56.5
 31
0
  0
SOLID
  8
1
 62
2
 10
-139.6924517716659
 20
55.5
 30
0
 11
-136.4924517716659
 21
55.916
 31
0
 12
-136.4924517716659
 22
55.084
 32
0
 13
-136.4924517716659
 23
55.084
 33
0
  0
SOLID
  8
1
 62
2
 10
-90.19245177166592
 20
55.5
 30
0
 11
-93.39245177166592
 21
55.084
 31
0
 12
-93.39245177166592
 22
55.916
 32
0
 13
-93.39245177166592
 23
55.916
 33
0
  0
TEXT
  8
1
 62
2
 10
-122.5264517716659
 20
56.5
 30
0
 40
3.2
  1
49.5
 41
0.9
  0
TEXT
  8
1
 62
2
 10
-112.2064517716659
 20
57.14
 30
0
 40
1.92
  1
%%p0.3
 41
0.9
  0
ENDBLK
  8
0
  0
BLOCK
  8
1
  2
*D9
 70
1
 10
0
 20
0
 30
0
  0
LINE
  8
1
 62
2
 10
-64.4424517716659
 20
-9.749999999999989
 30
0
 11
-64.4424517716659
 21
39.75
 31
0
  0
LINE
  8
1
 62
2
 10
-83.59245177166591
 20
39.75
 30
0
 11
-63.4424517716659
 21
39.75
 31
0
  0
LINE
  8
1
 62
2
 10
-83.59245177166591
 20
-9.749999999999989
 30
0
 11
-63.4424517716659
 21
-9.749999999999989
 31
0
  0
SOLID
  8
1
 62
2
 10
-64.4424517716659
 20
39.75
 30
0
 11
-64.0264517716659
 21
36.55
 31
0
 12
-64.8584517716659
 22
36.55
 32
0
 13
-64.8584517716659
 23
36.55
 33
0
  0
SOLID
  8
1
 62
2
 10
-64.4424517716659
 20
-9.749999999999989
 30
0
 11
-64.8584517716659
 21
-6.549999999999988
 31
0
 12
-64.0264517716659
 22
-6.549999999999988
 32
0
 13
-64.0264517716659
 23
-6.549999999999988
 33
0
  0
TEXT
  8
1
 62
2
 10
-65.4424517716659
 20
7.415999999999999
 30
0
 40
3.2
  1
49.5
 50
90
 41
0.9
  0
TEXT
  8
1
 62
2
 10
-66.0824517716659
 20
17.736
 30
0
 40
1.92
  1
%%p0.3
 50
90
 41
0.9
  0
ENDBLK
  8
0
  0
BLOCK
  8
1
  2
*D10
 70
1
 10
0
 20
0
 30
0
  0
LINE
  8
1
 62
2
 10
127.0000000000001
 20
65.5
 30
0
 11
119.57260531607
 21
65.5
 31
0
  0
LINE
  8
1
 62
2
 10
127.0000000000001
 20
65.5
 30
0
 11
131.0000000000001
 21
65.5
 31
0
  0
LINE
  8
1
 62
2
 10
137.4000000000002
 20
65.5
 30
0
 11
131.0000000000001
 21
65.5
 31
0
  0
LINE
  8
1
 62
2
 10
131.0000000000001
 20
23.00000000000001
 30
0
 11
131.0000000000001
 21
66.5
 31
0
  0
LINE
  8
1
 62
2
 10
127.0000000000001
 20
29.50000000000001
 30
0
 11
127.0000000000001
 21
66.5
 31
0
  0
SOLID
  8
1
 62
2
 10
127.0000000000001
 20
65.5
 30
0
 11
123.8000000000001
 21
65.084
 31
0
 12
123.8000000000001
 22
65.916
 32
0
 13
123.8000000000001
 23
65.916
 33
0
  0
SOLID
  8
1
 62
2
 10
131.0000000000001
 20
65.5
 30
0
 11
134.2000000000001
 21
65.916
 31
0
 12
134.2000000000001
 22
65.084
 32
0
 13
134.2000000000001
 23
65.084
 33
0
  0
TEXT
  8
1
 62
2
 10
121.65260531607
 20
66.5
 30
0
 40
3.2
  1
4
 41
0.9
  0
TEXT
  8
1
 62
2
 10
119.57260531607
 20
66.5
 30
0
 40
3.2
  1
(
 41
0.9
  0
TEXT
  8
1
 62
2
 10
125.17260531607
 20
66.5
 30
0
 40
3.2
  1
)
 41
0.9
  0
ENDBLK
  8
0
  0
BLOCK
  8
1
  2
*D11
 70
1
 10
0
 20
0
 30
0
  0
LINE
  8
1
 62
2
 10
157.5999999999997
 20
-3.600000000000129
 30
0
 11
157.5999999999997
 21
33.59999999999991
 31
0
  0
LINE
  8
1
 62
2
 10
120.8000000000002
 20
33.59999999999991
 30
0
 11
158.5999999999997
 21
33.59999999999991
 31
0
  0
LINE
  8
1
 62
2
 10
120.8000000000002
 20
-3.600000000000129
 30
0
 11
158.5999999999997
 21
-3.600000000000129
 31
0
  0
SOLID
  8
1
 62
2
 10
157.5999999999997
 20
33.59999999999991
 30
0
 11
158.0159999999997
 21
30.39999999999991
 31
0
 12
157.1839999999997
 22
30.39999999999991
 32
0
 13
157.1839999999997
 23
30.39999999999991
 33
0
  0
SOLID
  8
1
 62
2
 10
157.5999999999997
 20
-3.600000000000129
 30
0
 11
157.1839999999997
 21
-0.4000000000001287
 31
0
 12
158.0159999999997
 22
-0.4000000000001287
 32
0
 13
158.0159999999997
 23
-0.4000000000001287
 33
0
  0
TEXT
  8
1
 62
2
 10
155.7466666666664
 20
12.66352941176459
 30
0
 40
3.2
  1
37.2
 50
90
 41
0.9
  0
TEXT
  8
1
 62
2
 10
155.7466666666664
 20
8.616470588235185
 30
0
 40
3.2
  1
φ
 50
90
 41
0.9
  0
ENDBLK
  8
0
  0
BLOCK
  8
1
  2
*D12
 70
1
 10
0
 20
0
 30
0
  0
LINE
  8
1
 62
2
 10
172.3999999999995
 20
68.49385810855861
 30
0
 11
172.3999999999995
 21
86.57086545248839
 31
0
  0
LINE
  8
1
 62
2
 10
172.3999999999995
 20
65.29385810855857
 30
0
 11
172.3999999999995
 21
68.49385810855861
 31
0
  0
LINE
  8
1
 62
2
 10
172.3999999999995
 20
58.89385810855856
 30
0
 11
172.3999999999995
 21
65.29385810855857
 31
0
  0
LINE
  8
1
 62
2
 10
199.1549999999996
 20
68.49385810855861
 30
0
 11
171.3999999999995
 21
68.49385810855861
 31
0
  0
LINE
  8
1
 62
2
 10
198.6249999999994
 20
65.29385810855857
 30
0
 11
171.3999999999995
 21
65.29385810855857
 31
0
  0
SOLID
  8
1
 62
2
 10
172.3999999999995
 20
65.29385810855857
 30
0
 11
172.8159999999995
 21
62.09385810855856
 31
0
 12
171.9839999999995
 22
62.09385810855856
 32
0
 13
171.9839999999995
 23
62.09385810855856
 33
0
  0
SOLID
  8
1
 62
2
 10
172.3999999999995
 20
68.49385810855861
 30
0
 11
171.9839999999995
 21
71.69385810855862
 31
0
 12
172.8159999999995
 22
71.69385810855862
 32
0
 13
172.8159999999995
 23
71.69385810855862
 33
0
  0
TEXT
  8
1
 62
2
 10
171.3831582765301
 20
75.2908654524884
 30
0
 40
3.2
  1
2-3.2
 50
90
 41
0.9
  0
ENDBLK
  8
0
  0
BLOCK
  8
1
  2
*D13
 70
1
 10
0
 20
0
 30
0
  0
LINE
  8
1
 62
2
 10
162.3999999999994
 20
71.6438581085587
 30
0
 11
162.3999999999994
 21
89.37937419865241
 31
0
  0
LINE
  8
1
 62
2
 10
162.3999999999994
 20
65.29385810855857
 30
0
 11
162.3999999999994
 21
71.6438581085587
 31
0
  0
LINE
  8
1
 62
2
 10
162.3999999999994
 20
58.89385810855856
 30
0
 11
162.3999999999994
 21
65.29385810855857
 31
0
  0
LINE
  8
1
 62
2
 10
197.2499999999994
 20
71.6438581085587
 30
0
 11
161.3999999999994
 21
71.6438581085587
 31
0
  0
LINE
  8
1
 62
2
 10
198.6249999999994
 20
65.29385810855857
 30
0
 11
161.3999999999994
 21
65.29385810855857
 31
0
  0
SOLID
  8
1
 62
2
 10
162.3999999999994
 20
71.6438581085587
 30
0
 11
161.9839999999994
 21
74.84385810855871
 31
0
 12
162.8159999999994
 22
74.84385810855871
 32
0
 13
162.8159999999994
 23
74.84385810855871
 33
0
  0
SOLID
  8
1
 62
2
 10
162.3999999999994
 20
65.29385810855857
 30
0
 11
162.8159999999994
 21
62.09385810855856
 31
0
 12
161.9839999999994
 22
62.09385810855856
 32
0
 13
161.9839999999994
 23
62.09385810855856
 33
0
  0
TEXT
  8
1
 62
2
 10
161.3825174391801
 20
75.2193741986524
 30
0
 40
3.2
  1
2-6.35
 50
90
 41
0.9
  0
ENDBLK
  8
0
  0
BLOCK
  8
1
  2
*D14
 70
1
 10
0
 20
0
 30
0
  0
LINE
  8
1
 62
2
 10
229.5999999999995
 20
71.69385810855866
 30
0
 11
229.5999999999995
 21
86.02216641697839
 31
0
  0
LINE
  8
1
 62
2
 10
229.5999999999995
 20
65.29385810855857
 30
0
 11
229.5999999999995
 21
71.69385810855866
 31
0
  0
LINE
  8
1
 62
2
 10
229.5999999999995
 20
58.89385810855856
 30
0
 11
229.5999999999995
 21
65.29385810855857
 31
0
  0
LINE
  8
1
 62
2
 10
208.9999999999994
 20
71.69385810855866
 30
0
 11
230.5999999999995
 21
71.69385810855866
 31
0
  0
LINE
  8
1
 62
2
 10
203.3749999999994
 20
65.29385810855857
 30
0
 11
230.5999999999995
 21
65.29385810855857
 31
0
  0
SOLID
  8
1
 62
2
 10
229.5999999999995
 20
71.69385810855866
 30
0
 11
229.1839999999995
 21
74.89385810855866
 31
0
 12
230.0159999999995
 22
74.89385810855866
 32
0
 13
230.0159999999995
 23
74.89385810855866
 33
0
  0
SOLID
  8
1
 62
2
 10
229.5999999999995
 20
65.29385810855857
 30
0
 11
230.0159999999995
 21
62.09385810855856
 31
0
 12
229.1839999999995
 22
62.09385810855856
 32
0
 13
229.1839999999995
 23
62.09385810855856
 33
0
  0
TEXT
  8
1
 62
2
 10
228.4394460012201
 20
73.73416641697838
 30
0
 40
3.2
  1
6.4
 50
90
 41
0.9
  0
TEXT
  8
1
 62
2
 10
227.7994460012201
 20
81.1741664169784
 30
0
 40
1.92
  1
%%p0.5
 50
90
 41
0.9
  0
ENDBLK
  8
0
  0
BLOCK
  8
1
  2
*D15
 70
1
 10
0
 20
0
 30
0
  0
LINE
  8
1
 62
2
 10
203.3749999999994
 20
52.85554879312742
 30
0
 11
235.1506809201102
 21
52.85554879312742
 31
0
  0
LINE
  8
1
 62
2
 10
198.6249999999994
 20
52.85554879312742
 30
0
 11
203.3749999999994
 21
52.85554879312742
 31
0
  0
LINE
  8
1
 62
2
 10
192.2249999999993
 20
52.85554879312742
 30
0
 11
198.6249999999994
 21
52.85554879312742
 31
0
  0
LINE
  8
1
 62
2
 10
203.3749999999994
 20
65.2938581085586
 30
0
 11
203.3749999999994
 21
51.85554879312742
 31
0
  0
LINE
  8
1
 62
2
 10
198.6249999999994
 20
65.2938581085586
 30
0
 11
198.6249999999994
 21
51.85554879312742
 31
0
  0
SOLID
  8
1
 62
2
 10
198.6249999999994
 20
52.85554879312742
 30
0
 11
195.4249999999994
 21
52.43954879312742
 31
0
 12
195.4249999999994
 22
53.27154879312742
 32
0
 13
195.4249999999994
 23
53.27154879312742
 33
0
  0
SOLID
  8
1
 62
2
 10
203.3749999999994
 20
52.85554879312742
 30
0
 11
206.5749999999994
 21
53.27154879312742
 31
0
 12
206.5749999999994
 22
52.43954879312742
 32
0
 13
206.5749999999994
 23
52.43954879312742
 33
0
  0
TEXT
  8
1
 62
2
 10
207.7906809201101
 20
53.85554879312741
 30
0
 40
3.2
  1
2-4.75XT.05
 41
0.9
  0
ENDBLK
  8
0
  0
BLOCK
  8
1
  2
*D16
 70
1
 10
0
 20
0
 30
0
  0
LINE
  8
1
 62
2
 10
203.7499999999994
 20
43.90760699128541
 30
0
 11
219.1101682502302
 21
43.90760699128541
 31
0
  0
LINE
  8
1
 62
2
 10
198.2499999999994
 20
43.90760699128541
 30
0
 11
203.7499999999994
 21
43.90760699128541
 31
0
  0
LINE
  8
1
 62
2
 10
191.8499999999993
 20
43.90760699128541
 30
0
 11
198.2499999999994
 21
43.90760699128541
 31
0
  0
LINE
  8
1
 62
2
 10
203.7499999999994
 20
70.64385810855873
 30
0
 11
203.7499999999994
 21
42.90760699128541
 31
0
  0
LINE
  8
1
 62
2
 10
198.2499999999994
 20
70.69385810855869
 30
0
 11
198.2499999999994
 21
42.90760699128541
 31
0
  0
SOLID
  8
1
 62
2
 10
198.2499999999994
 20
43.90760699128541
 30
0
 11
195.0499999999994
 21
43.49160699128541
 31
0
 12
195.0499999999994
 22
44.3236069912854
 32
0
 13
195.0499999999994
 23
44.3236069912854
 33
0
  0
SOLID
  8
1
 62
2
 10
203.7499999999994
 20
43.90760699128541
 30
0
 11
206.9499999999994
 21
44.3236069912854
 31
0
 12
206.9499999999994
 22
43.49160699128541
 32
0
 13
206.9499999999994
 23
43.49160699128541
 33
0
  0
TEXT
  8
1
 62
2
 10
207.8301682502301
 20
44.9076069912854
 30
0
 40
3.2
  1
2-5.5
 41
0.9
  0
ENDBLK
  8
0
  0
BLOCK
  8
1
  2
*D17
 70
1
 10
0
 20
0
 30
0
  0
LINE
  8
1
 62
2
 10
147.3999999999998
 20
6.999999999999972
 30
0
 11
147.3999999999998
 21
23.00000000000006
 31
0
  0
LINE
  8
1
 62
2
 10
130.9999999999999
 20
23.00000000000006
 30
0
 11
148.3999999999998
 21
23.00000000000006
 31
0
  0
LINE
  8
1
 62
2
 10
130.9999999999999
 20
6.999999999999972
 30
0
 11
148.3999999999998
 21
6.999999999999972
 31
0
  0
SOLID
  8
1
 62
2
 10
147.3999999999998
 20
23.00000000000006
 30
0
 11
147.8159999999998
 21
19.80000000000006
 31
0
 12
146.9839999999998
 22
19.80000000000006
 32
0
 13
146.9839999999998
 23
19.80000000000006
 33
0
  0
SOLID
  8
1
 62
2
 10
147.3999999999998
 20
6.999999999999972
 30
0
 11
146.9839999999998
 21
10.19999999999997
 31
0
 12
147.8159999999998
 22
10.19999999999997
 32
0
 13
147.8159999999998
 23
10.19999999999997
 33
0
  0
TEXT
  8
1
 62
2
 10
145.5466666666665
 20
15.10352941176471
 30
0
 40
3.2
  1
16
 50
90
 41
0.9
  0
TEXT
  8
1
 62
2
 10
145.5466666666665
 20
11.05647058823529
 30
0
 40
3.2
  1
φ
 50
90
 41
0.9
  0
ENDBLK
  8
0
  0
BLOCK
  8
1
  2
*D18
 70
1
 10
0
 20
0
 30
0
  0
LINE
  8
1
 62
2
 10
229.5951756726889
 20
5.724999999999822
 30
0
 11
229.5951756726889
 21
24.27499999999978
 31
0
  0
LINE
  8
1
 62
2
 10
207.6289692464751
 20
24.27499999999978
 30
0
 11
230.5951756726889
 21
24.27499999999978
 31
0
  0
LINE
  8
1
 62
2
 10
207.6289692464751
 20
5.724999999999822
 30
0
 11
230.5951756726889
 21
5.724999999999822
 31
0
  0
SOLID
  8
1
 62
2
 10
229.5951756726889
 20
24.27499999999978
 30
0
 11
230.0111756726889
 21
21.07499999999978
 31
0
 12
229.1791756726889
 22
21.07499999999978
 32
0
 13
229.1791756726889
 23
21.07499999999978
 33
0
  0
SOLID
  8
1
 62
2
 10
229.5951756726889
 20
5.724999999999822
 30
0
 11
229.1791756726889
 21
8.924999999999823
 31
0
 12
230.0111756726889
 22
8.924999999999823
 32
0
 13
230.0111756726889
 23
8.924999999999823
 33
0
  0
TEXT
  8
1
 62
2
 10
228.595175672689
 20
11.1199999999998
 30
0
 40
3.2
  1
18.6
 50
90
 41
0.9
  0
TEXT
  8
1
 62
2
 10
228.595175672689
 20
9.0399999999998
 30
0
 40
3.2
  1
(
 50
90
 41
0.9
  0
TEXT
  8
1
 62
2
 10
228.595175672689
 20
20.4799999999998
 30
0
 40
3.2
  1
)
 50
90
 41
0.9
  0
ENDBLK
  8
0
  0
BLOCK
  8
1
  2
*D19
 70
1
 10
0
 20
0
 30
0
  0
LINE
  8
1
 62
2
 10
31.79999999999999
 20
75.5
 30
0
 11
131.0000000000001
 21
75.5
 31
0
  0
LINE
  8
1
 62
2
 10
31.79999999999999
 20
45.50000000000001
 30
0
 11
31.79999999999999
 21
76.5
 31
0
  0
LINE
  8
1
 62
2
 10
131.0000000000001
 20
23.00000000000001
 30
0
 11
131.0000000000001
 21
76.5
 31
0
  0
SOLID
  8
1
 62
2
 10
31.79999999999999
 20
75.5
 30
0
 11
34.99999999999999
 21
75.916
 31
0
 12
34.99999999999999
 22
75.084
 32
0
 13
34.99999999999999
 23
75.084
 33
0
  0
SOLID
  8
1
 62
2
 10
131.0000000000001
 20
75.5
 30
0
 11
127.8000000000001
 21
75.084
 31
0
 12
127.8000000000001
 22
75.916
 32
0
 13
127.8000000000001
 23
75.916
 33
0
  0
TEXT
  8
1
 62
2
 10
77.04000000000006
 20
76.5
 30
0
 40
3.2
  1
99.2
 41
0.9
  0
ENDBLK
  8
0
  0
BLOCK
  8
1
  2
*D20
 70
1
 10
0
 20
0
 30
0
  0
LINE
  8
1
 62
2
 10
131.0000000000001
 20
75.5
 30
0
 11
137.3999999999999
 21
75.5
 31
0
  0
LINE
  8
1
 62
2
 10
131.0000000000001
 20
75.5
 30
0
 11
124.6000000000001
 21
75.5
 31
0
  0
LINE
  8
1
 62
2
 10
137.3999999999999
 20
75.5
 30
0
 11
143.7999999999999
 21
75.5
 31
0
  0
LINE
  8
1
 62
2
 10
131.0000000000001
 20
23.00000000000001
 30
0
 11
131.0000000000001
 21
76.5
 31
0
  0
LINE
  8
1
 62
2
 10
137.3999999999999
 20
25.50000000000001
 30
0
 11
137.3999999999999
 21
76.5
 31
0
  0
SOLID
  8
1
 62
2
 10
131.0000000000001
 20
75.5
 30
0
 11
127.8000000000001
 21
75.084
 31
0
 12
127.8000000000001
 22
75.916
 32
0
 13
127.8000000000001
 23
75.916
 33
0
  0
SOLID
  8
1
 62
2
 10
137.3999999999999
 20
75.5
 30
0
 11
140.5999999999999
 21
75.916
 31
0
 12
140.5999999999999
 22
75.084
 32
0
 13
140.5999999999999
 23
75.084
 33
0
  0
TEXT
  8
1
 62
2
 10
128.056
 20
76.5
 30
0
 40
3.2
  1
6.4
 41
0.9
  0
TEXT
  8
1
 62
2
 10
135.496
 20
77.14
 30
0
 40
1.92
  1
%%p0.5
 41
0.9
  0
ENDBLK
  8
0
  0
BLOCK
  8
1
  2
*D21
 70
1
 10
0
 20
0
 30
0
  0
LINE
  8
1
 62
2
 10
-10.2
 20
28
 30
0
 11
-10.2
 21
49.09103705430781
 31
0
  0
LINE
  8
1
 62
2
 10
-10.2
 20
21
 30
0
 11
-10.2
 21
28
 31
0
  0
LINE
  8
1
 62
2
 10
-10.2
 20
14
 30
0
 11
-10.2
 21
21
 31
0
  0
LINE
  8
1
 62
2
 10
-0.8999999999999986
 20
28
 30
0
 11
-12.2
 21
28
 31
0
  0
LINE
  8
1
 62
2
 10
-0.8999999999999986
 20
21
 30
0
 11
-12.2
 21
21
 31
0
  0
SOLID
  8
1
 62
2
 10
-10.2
 20
21
 30
0
 11
-9.745000000000001
 21
17.5
 31
0
 12
-10.655
 22
17.5
 32
0
 13
-10.655
 23
17.5
 33
0
  0
SOLID
  8
1
 62
2
 10
-10.2
 20
28
 30
0
 11
-10.655
 21
31.5
 31
0
 12
-9.745000000000001
 22
31.5
 32
0
 13
-9.745000000000001
 23
31.5
 33
0
  0
TEXT
  8
1
 62
2
 10
-12.2
 20
39.9385370543078
 30
0
 40
3.5
  1
7
 50
90
 41
0.9
  0
TEXT
  8
1
 62
2
 10
-12.9
 20
43.7885370543078
 30
0
 40
2.1
  1
%%p0.3
 50
90
 41
0.9
  0
ENDBLK
  8
0
  0
BLOCK
  8
1
  2
*D22
 70
1
 10
0
 20
0
 30
0
  0
LINE
  8
1
 62
2
 10
-88.82567921272819
 20
-11.21011395861243
 30
0
 11
-73.04769715278069
 21
-28.06562638005833
 31
0
  0
LINE
  8
1
 62
2
 10
-73.04769715278069
 20
-28.06562638005833
 30
0
 11
-43.38675497788141
 21
-28.06562638005833
 31
0
  0
SOLID
  8
1
 62
2
 10
-88.82567921272819
 20
-11.21011395861243
 30
0
 11
-86.33513941503647
 21
-13.26200760013328
 31
0
 12
-86.94254682181924
 22
-13.83058498465136
 32
0
 13
-86.94254682181924
 23
-13.83058498465136
 33
0
  0
TEXT
  8
1
 62
2
 10
-72.52557850729319
 20
-27.30154147504173
 30
0
 40
3.2
  1
4
 41
0.9
  0
TEXT
  8
1
 62
2
 10
-69.00557850729319
 20
-27.30154147504173
 30
0
 40
3.2
  1
-M4有効深さ6
 41
0.9
  0
ENDBLK
  8
0
  0
BLOCK
  8
1
  2
*D23
 70
1
 10
0
 20
0
 30
0
  0
LINE
  8
1
 62
2
 10
187.8066101648399
 20
49.67542085439291
 30
0
 11
163.1415696094601
 21
49.67542085439291
 31
0
  0
LINE
  8
1
 62
2
 10
200.6268607651255
 20
67.96162966944831
 30
0
 11
187.8066101648399
 21
49.67542085439291
 31
0
  0
SOLID
  8
1
 62
2
 10
200.6268607651255
 20
67.96162966944831
 30
0
 11
199.1304938098542
 21
65.10261901273992
 31
0
 12
198.449241407793
 22
65.58023723337841
 32
0
 13
198.449241407793
 23
65.58023723337841
 33
0
  0
TEXT
  8
1
 62
2
 10
172.42156960946
 20
50.6091078474499
 30
0
 40
3.2
  1
1.3
 41
0.9
  0
TEXT
  8
1
 62
2
 10
163.14156960946
 20
50.6091078474499
 30
0
 40
3.2
  1
2-%%c
 41
0.9
  0
ENDBLK
  8
0
  0
ENDSEC
  0
SECTION
  2
ENTITIES
  0
LINE
  8
0
 62
3
 10
77.40000000000013
 20
-9.75
 30
0
 11
26.8
 21
-9.75
 31
0
  0
LINE
  8
0
 62
3
 10
77.40000000000013
 20
39.75
 30
0
 11
79.8
 21
39.75
 31
0
  0
LINE
  8
1
 62
7
 10
42.40835276142336
 20
46.595538861926
 30
0
 11
61.13116853207423
 21
46.595538861926
 31
0
  0
LINE
  8
0
 62
3
 10
-3.175952470580981
 20
25
 30
0
 11
35.99246060264799
 21
25
 31
0
  0
LINE
  8
0
 62
3
 10
79.8
 20
-9.75
 30
0
 11
77.40000000000013
 21
-9.75
 31
0
  0
LINE
  8
1
 62
7
 10
31.8
 20
44.5
 30
0
 11
31.8
 21
36.5
 31
0
  0
LINE
  8
1
 62
7
 10
73.8
 20
45.5
 30
0
 11
32.8
 21
45.5
 31
0
  0
LINE
  8
1
 62
7
 10
73.8
 20
-15.5
 30
0
 11
32.8
 21
-15.5
 31
0
  0
LINE
  8
1
 62
7
 10
31.8
 20
-14.5
 30
0
 11
31.8
 21
-6.500000000000004
 31
0
  0
LINE
  8
1
 62
7
 10
32.8
 20
16.00018399069103
 30
0
 11
32.8
 21
-6.000000000000007
 31
0
  0
LINE
  8
1
 62
7
 10
26.8
 20
16.00018399069103
 30
0
 11
32.8
 21
16.00018399069103
 31
0
  0
LINE
  8
1
 62
7
 10
26.8
 20
33.99981600930903
 30
0
 11
32.8
 21
33.99981600930903
 31
0
  0
LINE
  8
1
 62
7
 10
32.8
 20
16.00018399069103
 30
0
 11
32.8
 21
33.99981600930903
 31
0
  0
LINE
  8
0
 62
3
 10
26.8
 20
39.75
 30
0
 11
77.40000000000013
 21
39.75
 31
0
  0
LINE
  8
0
 62
3
 10
-98.06970021094794
 20
26.8
 30
0
 11
-91.6424517716659
 21
26.8
 31
0
  0
LINE
  8
0
 62
7
 10
-117.5882030827299
 20
28
 30
0
 11
-112.296700460601
 21
28
 31
0
  0
LINE
  8
0
 62
3
 10
-91.6424517716659
 20
26.8
 30
0
 11
-90.8924517716659
 21
26.8
 31
0
  0
LINE
  8
0
 62
3
 10
-138.9924517716659
 20
26.8
 30
0
 11
-130.876696216001
 21
26.8
 31
0
  0
LINE
  8
0
 62
3
 10
-135.2424517716659
 20
30.55229681150995
 30
0
 11
-135.2424517716659
 21
22.96635108554323
 31
0
  0
LINE
  8
0
 62
3
 10
-94.6424517716659
 20
30.41181633510307
 30
0
 11
-94.6424517716659
 21
23.17707180015332
 31
0
  0
LINE
  8
0
 62
3
 10
-118.7354246346488
 20
-8.5
 30
0
 11
-110.5875570030548
 21
-8.5
 31
0
  0
LINE
  8
0
 62
3
 10
-114.9424517716659
 20
47.55635040727418
 30
0
 11
-114.9424517716659
 21
-17.62659064547751
 31
0
  0
LINE
  8
0
 62
3
 10
-81.65913767063398
 20
15
 30
0
 11
-148.270622091163
 21
15
 31
0
  0
LINE
  8
0
 62
3
 10
-126.4465198981288
 20
25
 30
0
 11
-121.6924517716659
 21
25
 31
0
  0
LINE
  8
0
 62
7
 10
-0.2000000000000028
 20
21
 30
0
 11
-0.2000000000000028
 21
28
 31
0
  0
LINE
  8
0
 62
7
 10
-0.2000000000000028
 20
21
 30
0
 11
26.8
 21
21
 31
0
  0
LINE
  8
1
 62
7
 10
-0.2000000000000028
 20
28
 30
0
 11
12.8
 21
28
 31
0
  0
LINE
  8
1
 62
7
 10
26.8
 20
33.99981600930903
 30
0
 11
26.8
 21
16.00018399069103
 31
0
  0
LINE
  8
1
 62
7
 10
18.18580273375919
 20
29.00024539811398
 30
0
 11
26.8
 21
28.99965458923566
 31
0
  0
LINE
  8
1
 62
7
 10
-93.63656941872496
 20
27.09999999999995
 30
0
 11
-93.24245177166604
 21
27.09999999999995
 31
0
  0
LINE
  8
1
 62
7
 10
-93.63656941872496
 20
26.50000000000005
 30
0
 11
-93.24245177166604
 21
26.50000000000005
 31
0
  0
LINE
  8
1
 62
7
 10
-93.6424517716659
 20
27.09999999999995
 30
0
 11
-93.63656941872496
 21
27.09999999999995
 31
0
  0
LINE
  8
1
 62
7
 10
-93.6424517716659
 20
26.50000000000005
 30
0
 11
-93.63656941872496
 21
26.50000000000005
 31
0
  0
LINE
  8
1
 62
7
 10
-94.34245177166595
 20
25.8
 30
0
 11
-94.34245177166595
 21
25.40000000000002
 31
0
  0
LINE
  8
1
 62
7
 10
-94.84245177166595
 20
28.3
 30
0
 11
-94.44245177166586
 21
28.3
 31
0
  0
LINE
  8
1
 62
7
 10
-94.84245177166595
 20
25.3
 30
0
 11
-94.44245177166586
 21
25.3
 31
0
  0
LINE
  8
1
 62
7
 10
-93.1424517716659
 20
27.00000000000005
 30
0
 11
-93.1424517716659
 21
26.59999999999995
 31
0
  0
LINE
  8
1
 62
7
 10
-96.1424517716659
 20
27.00000000000005
 30
0
 11
-96.1424517716659
 21
26.59999999999995
 31
0
  0
LINE
  8
1
 62
7
 10
-96.042451771666
 20
27.09999999999995
 30
0
 11
-95.6424517716659
 21
27.09999999999995
 31
0
  0
LINE
  8
1
 62
7
 10
-96.042451771666
 20
26.50000000000005
 30
0
 11
-95.6424517716659
 21
26.50000000000005
 31
0
  0
LINE
  8
1
 62
7
 10
-94.94245177166586
 20
25.40000000000002
 30
0
 11
-94.94245177166586
 21
25.8
 31
0
  0
LINE
  8
1
 62
7
 10
-94.94245177166586
 20
28.19999999999998
 30
0
 11
-94.94245177166586
 21
27.8
 31
0
  0
LINE
  8
1
 62
7
 10
-94.34245177166595
 20
28.19999999999998
 30
0
 11
-94.34245177166595
 21
27.8
 31
0
  0
LINE
  8
1
 62
7
 10
-134.236569418725
 20
27.09999999999995
 30
0
 11
-133.8424517716659
 21
27.09999999999995
 31
0
  0
LINE
  8
1
 62
7
 10
-134.236569418725
 20
26.50000000000005
 30
0
 11
-133.8424517716659
 21
26.50000000000005
 31
0
  0
LINE
  8
1
 62
7
 10
-134.2424517716659
 20
27.09999999999995
 30
0
 11
-134.236569418725
 21
27.09999999999995
 31
0
  0
LINE
  8
1
 62
7
 10
-134.2424517716659
 20
26.50000000000005
 30
0
 11
-134.236569418725
 21
26.50000000000005
 31
0
  0
LINE
  8
1
 62
7
 10
-134.9424517716659
 20
25.8
 30
0
 11
-134.9424517716659
 21
25.40000000000002
 31
0
  0
LINE
  8
1
 62
7
 10
-135.4424517716659
 20
28.3
 30
0
 11
-135.042451771666
 21
28.3
 31
0
  0
LINE
  8
1
 62
7
 10
-135.4424517716659
 20
25.3
 30
0
 11
-135.042451771666
 21
25.3
 31
0
  0
LINE
  8
1
 62
7
 10
-133.7424517716659
 20
27.00000000000005
 30
0
 11
-133.7424517716659
 21
26.59999999999995
 31
0
  0
LINE
  8
1
 62
7
 10
-136.7424517716659
 20
27.00000000000005
 30
0
 11
-136.7424517716659
 21
26.59999999999995
 31
0
  0
LINE
  8
1
 62
7
 10
-136.642451771666
 20
27.09999999999995
 30
0
 11
-136.2424517716659
 21
27.09999999999995
 31
0
  0
LINE
  8
1
 62
7
 10
-136.642451771666
 20
26.50000000000005
 30
0
 11
-136.2424517716659
 21
26.50000000000005
 31
0
  0
LINE
  8
1
 62
7
 10
-135.542451771666
 20
25.40000000000002
 30
0
 11
-135.542451771666
 21
25.8
 31
0
  0
LINE
  8
1
 62
7
 10
-135.542451771666
 20
28.19999999999998
 30
0
 11
-135.542451771666
 21
27.8
 31
0
  0
LINE
  8
1
 62
7
 10
-134.9424517716659
 20
28.19999999999998
 30
0
 11
-134.9424517716659
 21
27.8
 31
0
  0
LINE
  8
1
 62
7
 10
-113.936569418725
 20
-8.199999999999989
 30
0
 11
-113.5424517716658
 21
-8.199999999999989
 31
0
  0
LINE
  8
1
 62
7
 10
-113.936569418725
 20
-8.799999999999898
 30
0
 11
-113.5424517716658
 21
-8.799999999999898
 31
0
  0
LINE
  8
1
 62
7
 10
-113.9424517716659
 20
-8.199999999999989
 30
0
 11
-113.936569418725
 21
-8.199999999999989
 31
0
  0
LINE
  8
1
 62
7
 10
-113.9424517716659
 20
-8.799999999999898
 30
0
 11
-113.936569418725
 21
-8.799999999999898
 31
0
  0
LINE
  8
1
 62
7
 10
-114.6424517716659
 20
-9.499999999999998
 30
0
 11
-114.6424517716659
 21
-9.899999999999869
 31
0
  0
LINE
  8
1
 62
7
 10
-115.1424517716659
 20
-6.999999999999886
 30
0
 11
-114.7424517716659
 21
-6.999999999999886
 31
0
  0
LINE
  8
1
 62
7
 10
-115.1424517716659
 20
-9.999999999999998
 30
0
 11
-114.7424517716659
 21
-9.999999999999998
 31
0
  0
LINE
  8
1
 62
7
 10
-113.4424517716659
 20
-8.299999999999898
 30
0
 11
-113.4424517716659
 21
-8.699999999999989
 31
0
  0
LINE
  8
1
 62
7
 10
-116.4424517716659
 20
-8.299999999999898
 30
0
 11
-116.4424517716659
 21
-8.699999999999989
 31
0
  0
LINE
  8
1
 62
7
 10
-116.3424517716658
 20
-8.199999999999989
 30
0
 11
-115.9424517716659
 21
-8.199999999999989
 31
0
  0
LINE
  8
1
 62
7
 10
-116.3424517716658
 20
-8.799999999999898
 30
0
 11
-115.9424517716659
 21
-8.799999999999898
 31
0
  0
LINE
  8
1
 62
7
 10
-115.2424517716659
 20
-9.899999999999869
 30
0
 11
-115.2424517716659
 21
-9.499999999999998
 31
0
  0
LINE
  8
1
 62
7
 10
-115.2424517716659
 20
-7.100000000000023
 30
0
 11
-115.2424517716659
 21
-7.5
 31
0
  0
LINE
  8
1
 62
7
 10
-114.6424517716659
 20
-7.100000000000023
 30
0
 11
-114.6424517716659
 21
-7.5
 31
0
  0
LINE
  8
0
 62
7
 10
75.8
 20
36.11293933246804
 30
0
 11
75.8
 21
43.11293933246804
 31
0
  0
LINE
  8
0
 62
7
 10
73.8
 20
45.5
 30
0
 11
73.8
 21
-15.5
 31
0
  0
LINE
  8
1
 62
7
 10
77.13360848093707
 20
43.20403352100777
 30
0
 11
75.90871557427504
 21
43.2496194698092
 31
0
  0
LINE
  8
1
 62
7
 10
77.13360848093707
 20
36.29596647899228
 30
0
 11
75.90871557427504
 21
36.25038053019085
 31
0
  0
LINE
  8
1
 62
7
 10
77.13360848093707
 20
-6.29596647899217
 30
0
 11
75.90871557427504
 21
-6.250380530190796
 31
0
  0
LINE
  8
1
 62
7
 10
77.13360848093707
 20
-13.20403352100783
 30
0
 11
75.90871557427504
 21
-13.2496194698092
 31
0
  0
LINE
  8
1
 62
7
 10
75.8
 20
-4.5
 30
0
 11
75.8
 21
34.5
 31
0
  0
LINE
  8
1
 62
7
 10
76.8
 20
34
 30
0
 11
76.3
 21
34
 31
0
  0
LINE
  8
1
 62
7
 10
76.3
 20
-4
 30
0
 11
76.8
 21
-4
 31
0
  0
LINE
  8
1
 62
7
 10
75.8
 20
-4.5
 30
0
 11
75.8
 21
-15
 31
0
  0
LINE
  8
1
 62
7
 10
75.8
 20
45
 30
0
 11
75.8
 21
34.5
 31
0
  0
LINE
  8
0
 62
7
 10
73.8
 20
45
 30
0
 11
75.8
 21
45
 31
0
  0
LINE
  8
0
 62
7
 10
75.8
 20
-15
 30
0
 11
73.8
 21
-15
 31
0
  0
LINE
  8
1
 62
3
 10
28.26648933099177
 20
15
 30
0
 11
137.7191561798811
 21
15
 31
0
  0
LINE
  8
1
 62
7
 10
77.3
 20
34
 30
0
 11
77.3
 21
-4
 31
0
  0
LINE
  8
1
 62
3
 10
-139.6924517716659
 20
45.35
 30
0
 11
-139.6924517716659
 21
34.15
 31
0
  0
LINE
  8
1
 62
3
 10
-145.2924517716659
 20
39.75
 30
0
 11
-134.0924517716659
 21
39.75
 31
0
  0
LINE
  8
1
 62
3
 10
-90.19245177166592
 20
45.34999999999999
 30
0
 11
-90.19245177166592
 21
34.15000000000001
 31
0
  0
LINE
  8
1
 62
3
 10
-84.59245177166591
 20
-9.749999999999989
 30
0
 11
-95.7924517716659
 21
-9.749999999999991
 31
0
  0
LINE
  8
1
 62
3
 10
-139.6924517716659
 20
-15.35
 30
0
 11
-139.6924517716659
 21
-4.150000000000013
 31
0
  0
LINE
  8
1
 62
3
 10
-84.59245177166591
 20
39.75
 30
0
 11
-95.79245177166591
 21
39.75
 31
0
  0
LINE
  8
1
 62
3
 10
-90.1924517716659
 20
-15.34999999999999
 30
0
 11
-90.1924517716659
 21
-4.149999999999989
 31
0
  0
LINE
  8
1
 62
3
 10
-145.2924517716659
 20
-9.750000000000009
 30
0
 11
-134.0924517716659
 21
-9.750000000000007
 31
0
  0
LINE
  8
1
 62
7
 10
-140.4424517716659
 20
45.5
 30
0
 11
-135.9424517716659
 21
45.5
 31
0
  0
LINE
  8
1
 62
7
 10
-84.4424517716659
 20
40.5
 30
0
 11
-84.4424517716659
 21
-10.5
 31
0
  0
LINE
  8
1
 62
7
 10
-89.4424517716659
 20
-15.5
 30
0
 11
-140.4424517716659
 21
-15.5
 31
0
  0
LINE
  8
1
 62
7
 10
-145.4424517716659
 20
-10.5
 30
0
 11
-145.4424517716659
 21
36
 31
0
  0
LINE
  8
1
 62
7
 10
-135.9424517716659
 20
45.5
 30
0
 11
-135.9424517716659
 21
40.5
 31
0
  0
LINE
  8
1
 62
7
 10
-135.9424517716659
 20
45.5
 30
0
 11
-89.4424517716659
 21
45.5
 31
0
  0
LINE
  8
1
 62
7
 10
-145.4424517716659
 20
36
 30
0
 11
-140.4424517716659
 21
36
 31
0
  0
LINE
  8
1
 62
7
 10
-145.4424517716659
 20
36
 30
0
 11
-145.4424517716659
 21
40.5
 31
0
  0
LINE
  8
1
 62
7
 10
-135.9424517716659
 20
-15.5
 30
0
 11
-135.9424517716659
 21
-10.5
 31
0
  0
LINE
  8
1
 62
7
 10
-84.4424517716659
 20
-6.000000000000011
 30
0
 11
-89.4424517716659
 21
-6.00000000000001
 31
0
  0
LINE
  8
1
 62
7
 10
-93.9424517716659
 20
45.49999999999999
 30
0
 11
-93.9424517716659
 21
40.49999999999999
 31
0
  0
LINE
  8
1
 62
7
 10
-145.4424517716659
 20
-5.999999999999997
 30
0
 11
-140.4424517716659
 21
-5.999999999999997
 31
0
  0
LINE
  8
1
 62
7
 10
-93.9424517716659
 20
-15.50000000000001
 30
0
 11
-93.9424517716659
 21
-10.50000000000001
 31
0
  0
LINE
  8
1
 62
7
 10
-84.4424517716659
 20
35.99999999999999
 30
0
 11
-89.4424517716659
 21
35.99999999999999
 31
0
  0
LINE
  8
0
 62
3
 10
-121.6924517716659
 20
25
 30
0
 11
-103.438383645203
 21
25
 31
0
  0
LINE
  8
1
 62
7
 10
32.8
 20
35.99999999999999
 30
0
 11
32.3
 21
35.99999999999999
 31
0
  0
LINE
  8
1
 62
7
 10
32.8
 20
35.99999999999999
 30
0
 11
32.8
 21
33.99981600930903
 31
0
  0
LINE
  8
1
 62
7
 10
32.3
 20
-6.000000000000004
 30
0
 11
32.8
 21
-6.000000000000007
 31
0
  0
LINE
  8
1
 62
7
 10
77.3
 20
31.59999999999999
 30
0
 11
77.3
 21
-1.599999999999994
 31
0
  0
LINE
  8
1
 62
7
 10
127.0000000000001
 20
1.5
 30
0
 11
127.0000000000001
 21
28.5
 31
0
  0
LINE
  8
1
 62
7
 10
106.849450959428
 20
1.274361025210084
 30
0
 11
106.849450959428
 21
28.72563897479
 31
0
  0
LINE
  8
1
 62
7
 10
86.84945095942798
 20
28.72563897479
 30
0
 11
86.84945095942798
 21
1.274361025210084
 31
0
  0
LINE
  8
1
 62
7
 10
86.84945095942798
 20
28.72563897479
 30
0
 11
106.849450959428
 21
28.72563897479
 31
0
  0
LINE
  8
1
 62
7
 10
219.6
 20
88.9944915864007
 30
0
 11
219.6
 21
78.69385810855869
 31
0
  0
LINE
  8
1
 62
7
 10
182.3999999999999
 20
78.69385810855869
 30
0
 11
182.3999999999999
 21
91.4040072697828
 31
0
  0
LINE
  8
1
 62
3
 10
200.995175672689
 20
94.04314228182059
 30
0
 11
200.995175672689
 21
61.59168878378358
 31
0
  0
LINE
  8
1
 62
7
 10
106.849450959428
 20
33.59999999999999
 30
0
 11
119.8
 21
33.59999999999988
 31
0
  0
LINE
  8
1
 62
7
 10
89.00706816261804
 20
33.59999999999999
 30
0
 11
106.849450959428
 21
33.59999999999999
 31
0
  0
LINE
  8
1
 62
7
 10
89.00706816261804
 20
33.59999999999999
 30
0
 11
109.0070681626181
 21
33.59999999999999
 31
0
  0
LINE
  8
1
 62
7
 10
210.395175672689
 20
17.0999999999998
 30
0
 11
210.395175672689
 21
15.89999999999981
 31
0
  0
LINE
  8
1
 62
7
 10
214.89517567269
 20
16.5999999999998
 30
0
 11
214.895175672689
 21
17.14999999999981
 31
0
  0
LINE
  8
1
 62
7
 10
214.895175672689
 20
17.14999999999981
 30
0
 11
210.395175672689
 21
17.14999999999981
 31
0
  0
LINE
  8
1
 62
7
 10
214.8951756726881
 20
15.89999999999981
 30
0
 11
214.89517567269
 21
17.0999999999998
 31
0
  0
LINE
  8
1
 62
7
 10
210.895175672689
 20
15.39999999999981
 30
0
 11
214.3951756726881
 21
15.39999999999981
 31
0
  0
LINE
  8
1
 62
7
 10
210.39517567269
 20
13.39999999999981
 30
0
 11
210.395175672689
 21
12.8499999999998
 31
0
  0
LINE
  8
1
 62
7
 10
210.395175672689
 20
12.8499999999998
 30
0
 11
214.895175672689
 21
12.8499999999998
 31
0
  0
LINE
  8
1
 62
7
 10
214.895175672689
 20
12.8499999999998
 30
0
 11
214.895175672689
 21
13.39999999999981
 31
0
  0
LINE
  8
1
 62
7
 10
210.395175672689
 20
12.89999999999981
 30
0
 11
210.395175672689
 21
14.0999999999998
 31
0
  0
LINE
  8
1
 62
7
 10
210.895175672689
 20
14.5999999999998
 30
0
 11
214.395175672689
 21
14.5999999999998
 31
0
  0
LINE
  8
1
 62
7
 10
214.895175672689
 20
14.0999999999998
 30
0
 11
214.89517567269
 21
12.89999999999981
 31
0
  0
LINE
  8
1
 62
4
 10
210.395175672689
 20
16.5999999999998
 30
0
 11
214.89517567269
 21
16.5999999999998
 31
0
  0
LINE
  8
1
 62
7
 10
210.395175672689
 20
17.14999999999981
 30
0
 11
210.395175672689
 21
16.5999999999998
 31
0
  0
LINE
  8
1
 62
7
 10
214.895175672689
 20
17.14999999999981
 30
0
 11
210.395175672689
 21
17.14999999999981
 31
0
  0
LINE
  8
1
 62
7
 10
214.89517567269
 20
16.5999999999998
 30
0
 11
214.895175672689
 21
17.14999999999981
 31
0
  0
LINE
  8
1
 62
7
 10
210.395175672689
 20
12.8499999999998
 30
0
 11
214.895175672689
 21
12.8499999999998
 31
0
  0
LINE
  8
1
 62
7
 10
210.39517567269
 20
13.39999999999981
 30
0
 11
210.395175672689
 21
12.8499999999998
 31
0
  0
LINE
  8
1
 62
4
 10
214.895175672689
 20
13.39999999999981
 30
0
 11
210.39517567269
 21
13.39999999999981
 31
0
  0
LINE
  8
1
 62
7
 10
214.895175672689
 20
12.8499999999998
 30
0
 11
214.895175672689
 21
13.39999999999981
 31
0
  0
LINE
  8
1
 62
7
 10
214.89517567269
 20
16.5999999999998
 30
0
 11
214.895175672689
 21
17.14999999999981
 31
0
  0
LINE
  8
1
 62
7
 10
214.895175672689
 20
12.8499999999998
 30
0
 11
214.895175672689
 21
13.39999999999981
 31
0
  0
LINE
  8
1
 62
7
 10
191.59517567269
 20
15.89999999999981
 30
0
 11
191.59517567269
 21
17.0999999999998
 31
0
  0
LINE
  8
1
 62
7
 10
187.09517567269
 20
17.14999999999981
 30
0
 11
187.09517567269
 21
16.5999999999998
 31
0
  0
LINE
  8
1
 62
7
 10
191.59517567269
 20
17.14999999999981
 30
0
 11
187.09517567269
 21
17.14999999999981
 31
0
  0
LINE
  8
1
 62
7
 10
187.09517567269
 20
17.0999999999998
 30
0
 11
187.09517567269
 21
15.89999999999981
 31
0
  0
LINE
  8
1
 62
7
 10
187.59517567269
 20
15.39999999999981
 30
0
 11
191.09517567269
 21
15.39999999999981
 31
0
  0
LINE
  8
1
 62
7
 10
191.59517567269
 20
12.8499999999998
 30
0
 11
191.59517567269
 21
13.39999999999981
 31
0
  0
LINE
  8
1
 62
7
 10
187.09517567269
 20
12.8499999999998
 30
0
 11
191.59517567269
 21
12.8499999999998
 31
0
  0
LINE
  8
1
 62
7
 10
187.09517567269
 20
13.39999999999981
 30
0
 11
187.09517567269
 21
12.8499999999998
 31
0
  0
LINE
  8
1
 62
7
 10
191.59517567269
 20
14.0999999999998
 30
0
 11
191.59517567269
 21
12.89999999999981
 31
0
  0
LINE
  8
1
 62
7
 10
187.59517567269
 20
14.5999999999998
 30
0
 11
191.09517567269
 21
14.5999999999998
 31
0
  0
LINE
  8
1
 62
7
 10
187.09517567269
 20
12.89999999999981
 30
0
 11
187.09517567269
 21
14.0999999999998
 31
0
  0
LINE
  8
1
 62
4
 10
187.09517567269
 20
16.5999999999998
 30
0
 11
191.59517567269
 21
16.5999999999998
 31
0
  0
LINE
  8
1
 62
7
 10
191.59517567269
 20
16.5999999999998
 30
0
 11
191.59517567269
 21
17.14999999999981
 31
0
  0
LINE
  8
1
 62
7
 10
191.59517567269
 20
17.14999999999981
 30
0
 11
187.09517567269
 21
17.14999999999981
 31
0
  0
LINE
  8
1
 62
7
 10
187.09517567269
 20
17.14999999999981
 30
0
 11
187.09517567269
 21
16.5999999999998
 31
0
  0
LINE
  8
1
 62
7
 10
187.09517567269
 20
12.8499999999998
 30
0
 11
191.59517567269
 21
12.8499999999998
 31
0
  0
LINE
  8
1
 62
7
 10
191.59517567269
 20
12.8499999999998
 30
0
 11
191.59517567269
 21
13.39999999999981
 31
0
  0
LINE
  8
1
 62
4
 10
191.59517567269
 20
13.39999999999981
 30
0
 11
187.09517567269
 21
13.39999999999981
 31
0
  0
LINE
  8
1
 62
7
 10
187.09517567269
 20
13.39999999999981
 30
0
 11
187.09517567269
 21
12.8499999999998
 31
0
  0
LINE
  8
1
 62
7
 10
203.495175672689
 20
-1.815171720800294
 30
0
 11
203.495175672689
 21
-3.418519666060206
 31
0
  0
LINE
  8
1
 62
7
 10
198.495175672689
 20
-1.815171720800294
 30
0
 11
198.495175672689
 21
-3.418519666060206
 31
0
  0
LINE
  8
1
 62
7
 10
203.495175672689
 20
31.8151717207999
 30
0
 11
203.495175672689
 21
33.41851966605981
 31
0
  0
LINE
  8
1
 62
7
 10
198.495175672689
 20
31.8151717207999
 30
0
 11
198.495175672689
 21
33.41851966605981
 31
0
  0
LINE
  8
1
 62
7
 10
201.679665276045
 20
30.69553041547678
 30
0
 11
206.752719116169
 21
32.06105667624789
 31
0
  0
LINE
  8
1
 62
7
 10
201.679665276045
 20
30.69553041547678
 30
0
 11
206.752719116169
 21
32.06105667624789
 31
0
  0
LINE
  8
1
 62
7
 10
195.2376322292089
 20
32.06105667624789
 30
0
 11
200.3106860693341
 21
30.69553041547678
 31
0
  0
LINE
  8
1
 62
7
 10
195.2376322292089
 20
32.06105667624789
 30
0
 11
200.3106860693341
 21
30.69553041547678
 31
0
  0
LINE
  8
1
 62
7
 10
195.2376322292089
 20
32.06105667624789
 30
0
 11
200.3106860693341
 21
30.69553041547678
 31
0
  0
LINE
  8
1
 62
7
 10
195.11141675192
 20
30.37196028348478
 30
0
 11
199.842873268857
 21
29.13459157211568
 31
0
  0
LINE
  8
1
 62
7
 10
202.1474780765209
 20
29.13459157211568
 30
0
 11
206.878934593457
 21
30.37196028348478
 31
0
  0
LINE
  8
1
 62
4
 10
208.0451756726891
 20
29.39999999999981
 30
0
 11
207.445175672689
 21
29.39999999999981
 31
0
  0
LINE
  8
1
 62
7
 10
202.1474780765209
 20
29.13459157211568
 30
0
 11
206.878934593457
 21
30.37196028348478
 31
0
  0
LINE
  8
1
 62
7
 10
206.878934593457
 20
-0.3719602834852083
 30
0
 11
202.1474780765209
 21
0.8654084278838923
 31
0
  0
LINE
  8
1
 62
7
 10
206.878934593457
 20
-0.3719602834852083
 30
0
 11
202.1474780765209
 21
0.8654084278838923
 31
0
  0
LINE
  8
1
 62
7
 10
199.842873268857
 20
0.8654084278838923
 30
0
 11
195.11141675192
 21
-0.3719602834852083
 31
0
  0
LINE
  8
1
 62
7
 10
199.842873268857
 20
0.8654084278838923
 30
0
 11
195.11141675192
 21
-0.3719602834852083
 31
0
  0
LINE
  8
1
 62
7
 10
206.752719116169
 20
-2.061056676248313
 30
0
 11
201.679665276045
 21
-0.695530415477208
 31
0
  0
LINE
  8
1
 62
7
 10
200.3106860693341
 20
-0.695530415477208
 30
0
 11
195.2376322292089
 21
-2.061056676248313
 31
0
  0
LINE
  8
1
 62
7
 10
200.3106860693341
 20
-0.695530415477208
 30
0
 11
195.2376322292089
 21
-2.061056676248313
 31
0
  0
LINE
  8
1
 62
7
 10
200.1451756726881
 20
-1.000000000000114
 30
0
 11
201.845175672688
 21
-1.000000000000114
 31
0
  0
LINE
  8
1
 62
7
 10
201.845175672688
 20
-1.978736702122319
 30
0
 11
201.845175672688
 21
-1.000000000000114
 31
0
  0
LINE
  8
1
 62
7
 10
200.1451756726881
 20
-1.978736702122319
 30
0
 11
200.1451756726881
 21
-1.000000000000114
 31
0
  0
LINE
  8
1
 62
7
 10
200.1451756726881
 20
30.99999999999989
 30
0
 11
201.845175672688
 21
30.99999999999989
 31
0
  0
LINE
  8
1
 62
7
 10
201.845175672688
 20
31.97873670212189
 30
0
 11
201.845175672688
 21
30.99999999999989
 31
0
  0
LINE
  8
1
 62
7
 10
200.1451756726881
 20
31.97873670212189
 30
0
 11
200.1451756726881
 21
30.99999999999989
 31
0
  0
LINE
  8
1
 62
4
 10
194.5451756726891
 20
27.1999999999997
 30
0
 11
194.5451756726891
 21
29.39999999999981
 31
0
  0
LINE
  8
1
 62
4
 10
194.5451756726891
 20
29.39999999999981
 30
0
 11
193.945175672689
 21
29.39999999999981
 31
0
  0
LINE
  8
1
 62
4
 10
193.945175672689
 20
29.39999999999981
 30
0
 11
193.945175672689
 21
27.1999999999997
 31
0
  0
LINE
  8
1
 62
4
 10
193.945175672689
 20
27.1999999999997
 30
0
 11
194.5451756726891
 21
27.1999999999997
 31
0
  0
LINE
  8
1
 62
4
 10
207.445175672689
 20
2.799999999999898
 30
0
 11
207.445175672689
 21
0.5999999999997954
 31
0
  0
LINE
  8
1
 62
4
 10
207.445175672689
 20
0.5999999999997954
 30
0
 11
208.0451756726891
 21
0.5999999999997954
 31
0
  0
LINE
  8
1
 62
4
 10
208.0451756726891
 20
0.5999999999997954
 30
0
 11
208.0451756726891
 21
2.799999999999898
 31
0
  0
LINE
  8
1
 62
4
 10
208.0451756726891
 20
2.799999999999898
 30
0
 11
207.445175672689
 21
2.799999999999898
 31
0
  0
LINE
  8
1
 62
3
 10
200.995175672689
 20
-8.587411511263412
 30
0
 11
200.995175672689
 21
2.549999999999898
 31
0
  0
LINE
  8
1
 62
7
 10
214.26167483411
 20
7.999999999999886
 30
0
 11
211.995175672689
 21
7.999999999999886
 31
0
  0
LINE
  8
1
 62
7
 10
187.728676511267
 20
21.99999999999989
 30
0
 11
189.995175672689
 21
21.99999999999989
 31
0
  0
LINE
  8
1
 62
7
 10
206.6520299221809
 20
7.999999999999886
 30
0
 11
204.8681590188961
 21
7.999999999999886
 31
0
  0
LINE
  8
1
 62
7
 10
206.6520299221809
 20
21.99999999999989
 30
0
 11
206.995175672689
 21
21.99999999999989
 31
0
  0
LINE
  8
1
 62
7
 10
195.3383214231961
 20
21.99999999999989
 30
0
 11
197.122192326481
 21
21.99999999999989
 31
0
  0
LINE
  8
1
 62
7
 10
195.3383214231961
 20
7.999999999999886
 30
0
 11
194.995175672689
 21
7.999999999999886
 31
0
  0
LINE
  8
1
 62
4
 10
202.095175672688
 20
4.099999999999795
 30
0
 11
202.095175672688
 21
4.149999999999807
 31
0
  0
LINE
  8
1
 62
4
 10
199.8951756726881
 20
4.699999999999704
 30
0
 11
199.8951756726881
 21
4.149999999999807
 31
0
  0
LINE
  8
1
 62
4
 10
202.095175672688
 20
4.149999999999807
 30
0
 11
202.095175672688
 21
4.699999999999704
 31
0
  0
LINE
  8
1
 62
4
 10
199.8951756726881
 20
4.099999999999795
 30
0
 11
202.095175672688
 21
4.099999999999795
 31
0
  0
LINE
  8
1
 62
4
 10
199.8951756726881
 20
4.149999999999807
 30
0
 11
199.8951756726881
 21
4.099999999999795
 31
0
  0
LINE
  8
1
 62
4
 10
202.095175672688
 20
4.699999999999704
 30
0
 11
199.8951756726881
 21
4.699999999999704
 31
0
  0
LINE
  8
1
 62
4
 10
202.095175672688
 20
25.8499999999998
 30
0
 11
202.095175672688
 21
25.89999999999981
 31
0
  0
LINE
  8
1
 62
4
 10
199.8951756726881
 20
25.8499999999998
 30
0
 11
199.8951756726881
 21
25.2999999999999
 31
0
  0
LINE
  8
1
 62
4
 10
202.095175672688
 20
25.2999999999999
 30
0
 11
202.095175672688
 21
25.8499999999998
 31
0
  0
LINE
  8
1
 62
4
 10
202.095175672688
 20
25.89999999999981
 30
0
 11
199.8951756726881
 21
25.89999999999981
 31
0
  0
LINE
  8
1
 62
4
 10
199.8951756726881
 20
25.89999999999981
 30
0
 11
199.8951756726881
 21
25.8499999999998
 31
0
  0
LINE
  8
1
 62
4
 10
199.8951756726881
 20
25.2999999999999
 30
0
 11
202.095175672688
 21
25.2999999999999
 31
0
  0
LINE
  8
1
 62
4
 10
207.445175672689
 20
29.39999999999981
 30
0
 11
207.445175672689
 21
27.1999999999997
 31
0
  0
LINE
  8
1
 62
4
 10
208.0451756726891
 20
29.39999999999981
 30
0
 11
207.445175672689
 21
29.39999999999981
 31
0
  0
LINE
  8
1
 62
4
 10
208.0451756726891
 20
27.1999999999997
 30
0
 11
208.0451756726891
 21
29.39999999999981
 31
0
  0
LINE
  8
1
 62
4
 10
207.445175672689
 20
27.1999999999997
 30
0
 11
208.0451756726891
 21
27.1999999999997
 31
0
  0
LINE
  8
1
 62
4
 10
194.545175672688
 20
0.5999999999997954
 30
0
 11
194.545175672688
 21
2.799999999999898
 31
0
  0
LINE
  8
1
 62
4
 10
193.945175672689
 20
0.5999999999997954
 30
0
 11
194.545175672688
 21
0.5999999999997954
 31
0
  0
LINE
  8
1
 62
4
 10
193.945175672689
 20
2.799999999999898
 30
0
 11
193.945175672689
 21
0.5999999999997954
 31
0
  0
LINE
  8
1
 62
4
 10
194.545175672688
 20
2.799999999999898
 30
0
 11
193.945175672689
 21
2.799999999999898
 31
0
  0
LINE
  8
1
 62
7
 10
209.995175672689
 20
28.49999999999989
 30
0
 11
209.995175672689
 21
26
 31
0
  0
LINE
  8
1
 62
7
 10
209.995175672689
 20
28.49999999999989
 30
0
 11
213.79009653997
 21
28.49999999999989
 31
0
  0
LINE
  8
1
 62
7
 10
209.995175672689
 20
1.499999999999886
 30
0
 11
213.79009653997
 21
1.499999999999886
 31
0
  0
LINE
  8
1
 62
7
 10
206.995175672689
 20
25.99999999999989
 30
0
 11
194.995175672689
 21
25.99999999999989
 31
0
  0
LINE
  8
1
 62
7
 10
207.995175672689
 20
22.99999999999989
 30
0
 11
207.995175672689
 21
24.99999999999989
 31
0
  0
LINE
  8
1
 62
7
 10
206.995175672689
 20
7.999999999999886
 30
0
 11
206.6520299221809
 21
7.999999999999886
 31
0
  0
LINE
  8
1
 62
7
 10
206.995175672689
 20
3.999999999999886
 30
0
 11
209.995175672689
 21
3.999999999999886
 31
0
  0
LINE
  8
1
 62
7
 10
207.995175672689
 20
4.999999999999886
 30
0
 11
207.995175672689
 21
6.999999999999886
 31
0
  0
LINE
  8
1
 62
7
 10
209.995175672689
 20
3.999999999999886
 30
0
 11
209.995175672689
 21
6
 31
0
  0
LINE
  8
1
 62
7
 10
189.995175672689
 20
7.999999999999886
 30
0
 11
188.995175672689
 21
7.999999999999886
 31
0
  0
LINE
  8
1
 62
7
 10
191.995175672689
 20
3.999999999999886
 30
0
 11
191.995175672689
 21
6
 31
0
  0
LINE
  8
1
 62
7
 10
194.995175672689
 20
3.999999999999886
 30
0
 11
206.995175672689
 21
3.999999999999886
 31
0
  0
LINE
  8
1
 62
7
 10
193.995175672689
 20
6.999999999999886
 30
0
 11
193.995175672689
 21
4.999999999999886
 31
0
  0
LINE
  8
1
 62
7
 10
193.995175672689
 20
22.99999999999989
 30
0
 11
193.995175672689
 21
24.99999999999989
 31
0
  0
LINE
  8
1
 62
7
 10
194.995175672689
 20
25.99999999999989
 30
0
 11
191.995175672689
 21
25.99999999999989
 31
0
  0
LINE
  8
1
 62
7
 10
194.995175672689
 20
21.99999999999989
 30
0
 11
195.3383214231961
 21
21.99999999999989
 31
0
  0
LINE
  8
1
 62
7
 10
209.995175672689
 20
24
 30
0
 11
209.995175672689
 21
26
 31
0
  0
LINE
  8
1
 62
7
 10
209.995175672689
 20
26
 30
0
 11
206.995175672689
 21
25.99999999999989
 31
0
  0
LINE
  8
1
 62
7
 10
191.995175672689
 20
25.99999999999989
 30
0
 11
191.995175672689
 21
24
 31
0
  0
LINE
  8
1
 62
7
 10
216.047085850471
 20
7.999999999999886
 30
0
 11
214.26167483411
 21
7.999999999999886
 31
0
  0
LINE
  8
1
 62
7
 10
185.9432654949069
 20
21.99999999999989
 30
0
 11
187.728676511267
 21
21.99999999999989
 31
0
  0
LINE
  8
1
 62
7
 10
205.495175672689
 20
5.999999999999886
 30
0
 11
205.432675672689
 21
5.999999999999886
 31
0
  0
LINE
  8
1
 62
7
 10
205.432675672689
 20
5.999999999999886
 30
0
 11
196.557675672689
 21
5.999999999999886
 31
0
  0
LINE
  8
1
 62
7
 10
196.557675672689
 20
5.999999999999886
 30
0
 11
196.495175672689
 21
5.999999999999886
 31
0
  0
LINE
  8
1
 62
7
 10
196.495175672689
 20
5.999999999999886
 30
0
 11
196.495175672689
 21
5.449999999999704
 31
0
  0
LINE
  8
1
 62
7
 10
196.495175672689
 20
5.449999999999704
 30
0
 11
205.495175672689
 21
5.449999999999704
 31
0
  0
LINE
  8
1
 62
7
 10
205.495175672689
 20
5.449999999999704
 30
0
 11
205.495175672689
 21
5.999999999999886
 31
0
  0
LINE
  8
1
 62
7
 10
205.432675672689
 20
23.99999999999989
 30
0
 11
205.495175672689
 21
23.99999999999989
 31
0
  0
LINE
  8
1
 62
7
 10
196.557675672689
 20
23.99999999999989
 30
0
 11
205.432675672689
 21
23.99999999999989
 31
0
  0
LINE
  8
1
 62
7
 10
196.495175672689
 20
23.99999999999989
 30
0
 11
196.557675672689
 21
23.99999999999989
 31
0
  0
LINE
  8
1
 62
7
 10
196.495175672689
 20
24.5499999999999
 30
0
 11
196.495175672689
 21
23.99999999999989
 31
0
  0
LINE
  8
1
 62
7
 10
205.495175672689
 20
24.5499999999999
 30
0
 11
196.495175672689
 21
24.5499999999999
 31
0
  0
LINE
  8
1
 62
7
 10
205.495175672689
 20
23.99999999999989
 30
0
 11
205.495175672689
 21
24.5499999999999
 31
0
  0
LINE
  8
1
 62
7
 10
191.995175672689
 20
25.99999999999989
 30
0
 11
191.995175672689
 21
28.49999999999989
 31
0
  0
LINE
  8
1
 62
7
 10
191.995175672689
 20
3.999999999999886
 30
0
 11
194.995175672689
 21
3.999999999999886
 31
0
  0
LINE
  8
1
 62
7
 10
209.995175672689
 20
3.999999999999886
 30
0
 11
209.995175672689
 21
1.499999999999886
 31
0
  0
LINE
  8
1
 62
7
 10
188.200254805407
 20
1.499999999999886
 30
0
 11
191.995175672689
 21
1.499999999999886
 31
0
  0
LINE
  8
1
 62
7
 10
188.200254805407
 20
28.49999999999989
 30
0
 11
191.995175672689
 21
28.49999999999989
 31
0
  0
LINE
  8
1
 62
7
 10
191.995175672689
 20
1.499999999999886
 30
0
 11
191.995175672689
 21
3.999999999999886
 31
0
  0
LINE
  8
1
 62
3
 10
177.395175672689
 20
15.00000000000009
 30
0
 11
224.595175672688
 21
14.99999999999989
 31
0
  0
LINE
  8
1
 62
3
 10
200.995175672689
 20
22.99999999999989
 30
0
 11
200.995175672689
 21
26.14999999999981
 31
0
  0
LINE
  8
1
 62
7
 10
197.122192326481
 20
7.999999999999886
 30
0
 11
195.3383214231961
 21
7.999999999999886
 31
0
  0
LINE
  8
1
 62
7
 10
204.8681590188961
 20
21.99999999999989
 30
0
 11
206.6520299221809
 21
21.99999999999989
 31
0
  0
LINE
  8
1
 62
3
 10
200.995175672689
 20
27.4499999999997
 30
0
 11
200.995175672689
 21
38.58741151126299
 31
0
  0
LINE
  8
1
 62
7
 10
186.995175672689
 20
9.999999999999886
 30
0
 11
186.218166503036
 21
9.999999999999886
 31
0
  0
LINE
  8
1
 62
7
 10
185.166088522761
 20
19.99999999999989
 30
0
 11
183.0798191314421
 21
19.99999999999989
 31
0
  0
LINE
  8
1
 62
7
 10
186.218166503036
 20
19.99999999999989
 30
0
 11
185.166088522761
 21
19.99999999999989
 31
0
  0
LINE
  8
1
 62
7
 10
214.995175672689
 20
19.99999999999989
 30
0
 11
218.9105322139351
 21
19.99999999999989
 31
0
  0
LINE
  8
1
 62
7
 10
216.824262822616
 20
9.999999999999886
 30
0
 11
218.9105322139351
 21
9.999999999999886
 31
0
  0
LINE
  8
1
 62
7
 10
215.772184842341
 20
9.999999999999886
 30
0
 11
216.824262822616
 21
9.999999999999886
 31
0
  0
LINE
  8
1
 62
7
 10
212.995175672689
 20
21.99999999999989
 30
0
 11
211.995175672689
 21
21.99999999999989
 31
0
  0
LINE
  8
1
 62
7
 10
186.218166503036
 20
9.999999999999886
 30
0
 11
183.0798191314421
 21
9.999999999999886
 31
0
  0
LINE
  8
1
 62
4
 10
200.3451756726891
 20
26.7999999999999
 30
0
 11
201.6451756726881
 21
26.7999999999999
 31
0
  0
LINE
  8
1
 62
3
 10
200.995175672689
 20
26.14999999999981
 30
0
 11
200.995175672689
 21
27.4499999999997
 31
0
  0
LINE
  8
1
 62
3
 10
200.995175672689
 20
26.14999999999981
 30
0
 11
200.995175672689
 21
27.4499999999997
 31
0
  0
LINE
  8
1
 62
3
 10
200.995175672689
 20
2.549999999999898
 30
0
 11
200.995175672689
 21
3.849999999999795
 31
0
  0
LINE
  8
1
 62
3
 10
200.995175672689
 20
3.849999999999795
 30
0
 11
200.995175672689
 21
16.99999999999989
 31
0
  0
LINE
  8
1
 62
7
 10
182.3999999999999
 20
78.69385810855869
 30
0
 11
182.3999999999999
 21
75.69385810855869
 31
0
  0
LINE
  8
1
 62
7
 10
200.0000000000001
 20
80.69385810855869
 30
0
 11
195.2142857142861
 21
80.69385810855869
 31
0
  0
LINE
  8
1
 62
7
 10
200.0000000000001
 20
80.69385810855869
 30
0
 11
200.0000000000001
 21
82.29886076289171
 31
0
  0
LINE
  8
1
 62
7
 10
202.0000000000001
 20
80.6938581085586
 30
0
 11
200.0000000000001
 21
80.69385810855869
 31
0
  0
LINE
  8
1
 62
7
 10
202.0000000000001
 20
80.6938581085586
 30
0
 11
202.0000000000001
 21
82.29886076289171
 31
0
  0
LINE
  8
1
 62
7
 10
199.5000000000001
 20
79.1954998410196
 30
0
 11
199.5000000000001
 21
79.6954998410196
 31
0
  0
LINE
  8
1
 62
7
 10
202.5000000000001
 20
79.6954998410196
 30
0
 11
202.5000000000001
 21
79.1954998410196
 31
0
  0
LINE
  8
1
 62
7
 10
195.2142857142861
 20
80.69385810855869
 30
0
 11
193.5000000000001
 21
80.8938581085587
 31
0
  0
LINE
  8
1
 62
7
 10
206.7857142857141
 20
80.69385810855869
 30
0
 11
202.5000000000001
 21
80.19385810855869
 31
0
  0
LINE
  8
1
 62
7
 10
206.7857142857141
 20
80.69385810855869
 30
0
 11
202.0000000000001
 21
80.6938581085586
 31
0
  0
LINE
  8
1
 62
7
 10
193.5000000000001
 20
80.8938581085587
 30
0
 11
193.5000000000001
 21
82.8938581085587
 31
0
  0
LINE
  8
1
 62
7
 10
199.5000000000001
 20
80.19385810855869
 30
0
 11
195.2142857142861
 21
80.69385810855869
 31
0
  0
LINE
  8
1
 62
7
 10
202.5000000000001
 20
80.19385810855869
 30
0
 11
199.5000000000001
 21
80.19385810855869
 31
0
  0
LINE
  8
1
 62
7
 10
208.5000000000001
 20
80.8938581085587
 30
0
 11
206.7857142857141
 21
80.69385810855869
 31
0
  0
LINE
  8
1
 62
7
 10
208.5000000000001
 20
82.8938581085587
 30
0
 11
208.5000000000001
 21
80.8938581085587
 31
0
  0
LINE
  8
1
 62
7
 10
198.5000000000001
 20
82.8938581085587
 30
0
 11
193.5000000000001
 21
82.8938581085587
 31
0
  0
LINE
  8
1
 62
7
 10
208.5000000000001
 20
82.8938581085587
 30
0
 11
203.5000000000001
 21
82.8938581085587
 31
0
  0
LINE
  8
1
 62
7
 10
194.0000000000001
 20
75.69385810855869
 30
0
 11
198.2500000000001
 21
75.69385810855869
 31
0
  0
LINE
  8
1
 62
7
 10
194.0000000000001
 20
75.69385810855869
 30
0
 11
194.0000000000001
 21
78.69385810855869
 31
0
  0
LINE
  8
1
 62
7
 10
208.0000000000001
 20
75.69385810855869
 30
0
 11
209.0000000000001
 21
75.69385810855869
 31
0
  0
LINE
  8
1
 62
7
 10
208.0000000000001
 20
75.69385810855869
 30
0
 11
208.0000000000001
 21
78.69385810855869
 31
0
  0
LINE
  8
1
 62
7
 10
188.2050791327181
 20
75.69385810855869
 30
0
 11
182.3999999999999
 21
75.69385810855869
 31
0
  0
LINE
  8
1
 62
7
 10
188.2050791327181
 20
78.69385810855869
 30
0
 11
188.2050791327181
 21
75.69385810855869
 31
0
  0
LINE
  8
1
 62
7
 10
192.0000000000001
 20
75.69385810855869
 30
0
 11
188.2050791327181
 21
75.69385810855869
 31
0
  0
LINE
  8
1
 62
7
 10
192.0000000000001
 20
78.69385810855869
 30
0
 11
192.0000000000001
 21
75.69385810855869
 31
0
  0
LINE
  8
1
 62
7
 10
209.9999999999989
 20
75.69385810855869
 30
0
 11
219.6
 21
75.69385810855869
 31
0
  0
LINE
  8
1
 62
7
 10
209.9999999999989
 20
78.69385810855869
 30
0
 11
209.9999999999989
 21
75.69385810855869
 31
0
  0
LINE
  8
1
 62
7
 10
79.3
 20
33.59999999999999
 30
0
 11
86.84945095942798
 21
33.59999999999999
 31
0
  0
LINE
  8
1
 62
7
 10
182.3999999999999
 20
78.69385810855869
 30
0
 11
219.6
 21
78.69385810855869
 31
0
  0
LINE
  8
1
 62
7
 10
209.0000000000001
 20
75.69385810855869
 30
0
 11
209.0000000000001
 21
72.69385810855869
 31
0
  0
LINE
  8
1
 62
7
 10
193.0000000000001
 20
72.69385810855869
 30
0
 11
193.0000000000001
 21
75.69385810855869
 31
0
  0
LINE
  8
1
 62
7
 10
193.0000000000001
 20
75.69385810855869
 30
0
 11
194.0000000000001
 21
75.69385810855869
 31
0
  0
LINE
  8
1
 62
7
 10
219.6
 20
78.69385810855869
 30
0
 11
219.6
 21
75.69385810855869
 31
0
  0
LINE
  8
1
 62
7
 10
209.0000000000001
 20
75.69385810855869
 30
0
 11
209.9999999999989
 21
75.69385810855869
 31
0
  0
LINE
  8
1
 62
7
 10
193.0000000000001
 20
75.69385810855869
 30
0
 11
192.0000000000001
 21
75.69385810855869
 31
0
  0
LINE
  8
1
 62
7
 10
208.0000000000001
 20
71.69385810855869
 30
0
 11
203.7500000000001
 21
71.69385810855869
 31
0
  0
LINE
  8
1
 62
3
 10
200.995175672689
 20
16.99999999999989
 30
0
 11
200.995175672689
 21
22.99999999999989
 31
0
  0
LINE
  8
1
 62
3
 10
195.628969246475
 20
5.724999999999795
 30
0
 11
206.628969246475
 21
5.724999999999795
 31
0
  0
LINE
  8
1
 62
3
 10
206.628969246475
 20
24.27499999999981
 30
0
 11
195.628969246475
 21
24.27499999999981
 31
0
  0
LINE
  8
1
 62
4
 10
203.7500000000001
 20
75.69385810855869
 30
0
 11
203.7500000000001
 21
73.52170686718691
 31
0
  0
LINE
  8
1
 62
7
 10
203.7500000000001
 20
75.69385810855869
 30
0
 11
208.0000000000001
 21
75.69385810855869
 31
0
  0
LINE
  8
1
 62
7
 10
203.7500000000001
 20
71.6438581085587
 30
0
 11
203.3750000000001
 21
71.6438581085587
 31
0
  0
LINE
  8
1
 62
7
 10
203.3750000000001
 20
71.6438581085587
 30
0
 11
203.3750000000001
 21
66.2938581085586
 31
0
  0
LINE
  8
1
 62
7
 10
202.3750000000001
 20
65.2938581085586
 30
0
 11
199.6250000000001
 21
65.2938581085586
 31
0
  0
LINE
  8
1
 62
7
 10
198.6250000000001
 20
66.2938581085586
 30
0
 11
198.6250000000001
 21
71.6438581085587
 31
0
  0
LINE
  8
1
 62
7
 10
198.6250000000001
 20
71.6438581085587
 30
0
 11
198.2500000000001
 21
71.6438581085587
 31
0
  0
LINE
  8
1
 62
7
 10
198.2500000000001
 20
71.6438581085587
 30
0
 11
198.2500000000001
 21
73.5166911898971
 31
0
  0
LINE
  8
1
 62
7
 10
198.2500000000001
 20
75.69385810855869
 30
0
 11
203.7500000000001
 21
75.69385810855869
 31
0
  0
LINE
  8
1
 62
7
 10
202.3750000000001
 20
65.2938581085586
 30
0
 11
203.3750000000001
 21
66.2938581085586
 31
0
  0
LINE
  8
1
 62
7
 10
198.6250000000001
 20
66.2938581085586
 30
0
 11
199.6250000000001
 21
65.2938581085586
 31
0
  0
LINE
  8
1
 62
7
 10
203.3750000000001
 20
66.2938581085586
 30
0
 11
198.6250000000001
 21
66.2938581085586
 31
0
  0
LINE
  8
1
 62
3
 10
201.0000000000001
 20
67.84385810855861
 30
0
 11
201.0000000000001
 21
69.3388581085587
 31
0
  0
LINE
  8
1
 62
3
 10
201.8450000000001
 20
68.4938581085587
 30
0
 11
200.155
 21
68.4938581085587
 31
0
  0
LINE
  8
1
 62
3
 10
201.0000000000001
 20
69.3388581085587
 30
0
 11
201.0000000000001
 21
67.64885810855859
 31
0
  0
LINE
  8
1
 62
3
 10
201.0000000000001
 20
67.64885810855859
 30
0
 11
201.0000000000001
 21
67.84385810855861
 31
0
  0
LINE
  8
1
 62
7
 10
198.2500000000001
 20
71.69385810855869
 30
0
 11
194.0000000000001
 21
71.69385810855869
 31
0
  0
LINE
  8
1
 62
3
 10
200.995175672689
 20
-2.472791896940294
 30
0
 11
200.995175672689
 21
4.527208103059706
 31
0
  0
LINE
  8
1
 62
3
 10
187.758006336371
 20
26.10730390793481
 30
0
 11
191.2550529128289
 21
23.17293341541989
 31
0
  0
LINE
  8
1
 62
3
 10
210.7352984325481
 20
23.17293341541989
 30
0
 11
214.232345009006
 21
26.10730390793481
 31
0
  0
LINE
  8
1
 62
3
 10
191.2550529128289
 20
6.827066584579796
 30
0
 11
187.758006336371
 21
3.892696092064796
 31
0
  0
LINE
  8
1
 62
3
 10
214.232345009006
 20
3.892696092064796
 30
0
 11
210.7352984325481
 21
6.827066584579796
 31
0
  0
LINE
  8
1
 62
7
 10
124.0000000000001
 20
-0.3399288330811032
 30
0
 11
124.0000000000001
 21
2.660071166918897
 31
0
  0
LINE
  8
1
 62
7
 10
127.0000000000001
 20
22.99999999999989
 30
0
 11
130.0000000000001
 21
23
 31
0
  0
LINE
  8
1
 62
7
 10
131.0000000000001
 20
22
 30
0
 11
131.0000000000001
 21
15
 31
0
  0
LINE
  8
1
 62
7
 10
130.0000000000001
 20
7
 30
0
 11
127.0000000000001
 21
7
 31
0
  0
LINE
  8
1
 62
7
 10
131.0000000000001
 20
15
 30
0
 11
131.0000000000001
 21
8
 31
0
  0
LINE
  8
1
 62
7
 10
124.0000000000001
 20
1.5
 30
0
 11
127.0000000000001
 21
1.5
 31
0
  0
LINE
  8
1
 62
7
 10
124.0000000000001
 20
28.5
 30
0
 11
127.0000000000001
 21
28.5
 31
0
  0
LINE
  8
1
 62
7
 10
137.3999999999999
 20
5.5
 30
0
 11
137.3999999999999
 21
6
 31
0
  0
LINE
  8
1
 62
7
 10
127.0000000000001
 20
5.5
 30
0
 11
137.3999999999999
 21
5.5
 31
0
  0
LINE
  8
1
 62
7
 10
137.3999999999999
 20
24
 30
0
 11
137.3999999999999
 21
24.5
 31
0
  0
LINE
  8
1
 62
7
 10
127.0000000000001
 20
24
 30
0
 11
137.3999999999999
 21
24
 31
0
  0
LINE
  8
1
 62
7
 10
119.8
 20
-3.600000000000108
 30
0
 11
79.3
 21
-3.599999999999994
 31
0
  0
LINE
  8
1
 62
7
 10
119.8
 20
32
 30
0
 11
119.8
 21
33.59999999999988
 31
0
  0
LINE
  8
1
 62
7
 10
124.0000000000001
 20
32
 30
0
 11
119.8
 21
32
 31
0
  0
LINE
  8
1
 62
7
 10
124.0000000000001
 20
-2
 30
0
 11
124.0000000000001
 21
13.5
 31
0
  0
LINE
  8
1
 62
7
 10
119.8
 20
-2
 30
0
 11
124.0000000000001
 21
-2
 31
0
  0
LINE
  8
1
 62
7
 10
119.8
 20
-3.600000000000108
 30
0
 11
119.8
 21
-2
 31
0
  0
LINE
  8
1
 62
7
 10
137.3999999999999
 20
24.5
 30
0
 11
127.0000000000001
 21
24.5
 31
0
  0
LINE
  8
1
 62
7
 10
137.3999999999999
 20
6
 30
0
 11
127.0000000000001
 21
6
 31
0
  0
LINE
  8
1
 62
7
 10
125.0000000000001
 20
10
 30
0
 11
127.0000000000001
 21
10
 31
0
  0
LINE
  8
1
 62
7
 10
125.0000000000001
 20
20
 30
0
 11
125.0000000000001
 21
10
 31
0
  0
LINE
  8
1
 62
7
 10
127.0000000000001
 20
20
 30
0
 11
125.0000000000001
 21
20
 31
0
  0
LINE
  8
1
 62
7
 10
124.0000000000001
 20
13.5
 30
0
 11
121.3999999999999
 21
13.5
 31
0
  0
LINE
  8
1
 62
7
 10
121.3999999999999
 20
13.5
 30
0
 11
121.3999999999999
 21
16.5
 31
0
  0
LINE
  8
1
 62
7
 10
121.3999999999999
 20
16.5
 30
0
 11
124.0000000000001
 21
16.5
 31
0
  0
LINE
  8
1
 62
7
 10
124.0000000000001
 20
16.5
 30
0
 11
124.0000000000001
 21
32
 31
0
  0
LINE
  8
1
 62
7
 10
86.84945095942798
 20
33.59999999999999
 30
0
 11
89.00706816261804
 21
33.59999999999999
 31
0
  0
LINE
  8
1
 62
7
 10
106.849450959428
 20
1.274361025210084
 30
0
 11
86.84945095942798
 21
1.274361025210084
 31
0
  0
LINE
  8
1
 62
7
 10
204.995175672689
 20
74.1534383583973
 30
0
 11
204.995175672689
 21
75.69385810855869
 31
0
  0
LINE
  8
1
 62
7
 10
196.995175672689
 20
74.1534383583973
 30
0
 11
196.995175672689
 21
75.69385810855869
 31
0
  0
LINE
  8
1
 62
3
 10
200.995175672689
 20
72.19385810855869
 30
0
 11
200.995175672689
 21
70.48179517726859
 31
0
  0
LINE
  8
1
 62
4
 10
196.495175672689
 20
2.549999999999898
 30
0
 11
196.495175672689
 21
3.849999999999795
 31
0
  0
LINE
  8
1
 62
4
 10
195.8451756726891
 20
3.200000000000301
 30
0
 11
197.1451756726881
 21
3.199999999999704
 31
0
  0
LINE
  8
1
 62
3
 10
200.995175672689
 20
2.549999999999898
 30
0
 11
200.995175672689
 21
3.849999999999795
 31
0
  0
LINE
  8
1
 62
3
 10
200.995175672689
 20
2.549999999999898
 30
0
 11
200.995175672689
 21
3.849999999999795
 31
0
  0
LINE
  8
1
 62
4
 10
200.3451756726891
 20
3.199999999999704
 30
0
 11
201.6451756726881
 21
3.199999999999704
 31
0
  0
LINE
  8
1
 62
4
 10
205.495175672689
 20
2.549999999999898
 30
0
 11
205.495175672689
 21
3.849999999999795
 31
0
  0
LINE
  8
1
 62
4
 10
204.8451756726891
 20
3.200000000000301
 30
0
 11
206.1451756726881
 21
3.199999999999704
 31
0
  0
LINE
  8
1
 62
4
 10
205.495175672689
 20
26.14999999999981
 30
0
 11
205.495175672689
 21
27.4499999999997
 31
0
  0
LINE
  8
1
 62
4
 10
204.8451756726891
 20
26.79999999999998
 30
0
 11
206.1451756726881
 21
26.7999999999999
 31
0
  0
LINE
  8
1
 62
4
 10
196.495175672689
 20
26.14999999999981
 30
0
 11
196.495175672689
 21
27.4499999999997
 31
0
  0
LINE
  8
1
 62
7
 10
213.78527221266
 20
75.69385810855869
 30
0
 11
213.78527221266
 21
78.69385810855869
 31
0
  0
LINE
  8
1
 62
4
 10
198.2500000000001
 20
73.5166911898971
 30
0
 11
198.2500000000001
 21
75.69385810855869
 31
0
  0
LINE
  8
1
 62
7
 10
203.7500000000001
 20
73.52170686718691
 30
0
 11
203.7500000000001
 21
71.6438581085587
 31
0
  0
LINE
  8
1
 62
4
 10
195.8451756726891
 20
26.79999999999998
 30
0
 11
197.1451756726881
 21
26.7999999999999
 31
0
  0
LINE
  8
1
 62
7
 10
109.9649307842685
 20
85.18931355180801
 30
0
 11
149.9649307842685
 21
85.18931355180801
 31
0
  0
LINE
  8
1
 62
7
 10
149.9649307842685
 20
85.18931355180801
 30
0
 11
149.9649307842685
 21
90.18931355180801
 31
0
  0
LINE
  8
1
 62
7
 10
149.9649307842685
 20
90.18931355180801
 30
0
 11
109.9649307842685
 21
90.18931355180801
 31
0
  0
LINE
  8
1
 62
7
 10
109.9649307842685
 20
90.18931355180801
 30
0
 11
109.9649307842685
 21
85.18931355180801
 31
0
  0
ARC
  8
0
 62
7
 10
-114.9424517716659
 20
25
 30
0
 40
4.000000000000204
 50
48.59037789072583
 51
131.4096221092646
  0
ARC
  8
0
 62
7
 10
-114.9424517716659
 20
25
 30
0
 40
3.999999999999611
 50
131.4096221092646
 51
48.59037789072583
  0
ARC
  8
1
 62
7
 10
12.8
 20
42.99999999999682
 30
0
 40
14.99999999999682
 50
270
 51
291.0420805544337
  0
ARC
  8
1
 62
7
 10
-95.64539294813694
 20
27.80294117647059
 30
0
 40
0.7029473295325608
 50
270.2397298961177
 51
359.7602701039193
  0
ARC
  8
1
 62
7
 10
-93.63951059519486
 20
27.80294117647059
 30
0
 40
0.7029473295330065
 50
180.2397298960808
 51
270.239729896025
  0
ARC
  8
1
 62
7
 10
-93.63951059519486
 20
25.79705882352941
 30
0
 40
0.7029473295325561
 50
89.76027010397498
 51
179.7602701039193
  0
ARC
  8
1
 62
7
 10
-95.64539294813694
 20
25.79705882352941
 30
0
 40
0.7029473295330065
 50
0.2397298960807542
 51
89.76027010388232
  0
ARC
  8
1
 62
7
 10
-136.2453929481369
 20
27.80294117647059
 30
0
 40
0.7029473295325606
 50
270.239729896113
 51
359.7602701039192
  0
ARC
  8
1
 62
7
 10
-134.239510595195
 20
27.80294117647059
 30
0
 40
0.702947329532836
 50
180.2397298960808
 51
270.239729896032
  0
ARC
  8
1
 62
7
 10
-134.239510595195
 20
25.79705882352941
 30
0
 40
0.7029473295325563
 50
89.76027010396803
 51
179.7602701039192
  0
ARC
  8
1
 62
7
 10
-136.2453929481369
 20
25.79705882352941
 30
0
 40
0.7029473295328076
 50
0.2397298960808221
 51
89.76027010388695
  0
ARC
  8
1
 62
7
 10
-115.9453929481369
 20
-7.497058823529414
 30
0
 40
0.7029473295324966
 50
270.2397298961142
 51
359.7602701039195
  0
ARC
  8
1
 62
7
 10
-113.9395105951949
 20
-7.497058823529414
 30
0
 40
0.7029473295329213
 50
180.2397298960805
 51
270.239729896025
  0
ARC
  8
1
 62
7
 10
-113.9395105951949
 20
-9.502941176470468
 30
0
 40
0.7029473295324886
 50
89.76027010397496
 51
179.7602701039289
  0
ARC
  8
1
 62
7
 10
-115.9453929481369
 20
-9.502941176470468
 30
0
 40
0.7029473295329208
 50
0.2397298960710826
 51
89.76027010388577
  0
ARC
  8
1
 62
7
 10
70.40507042253516
 20
39.76521753674308
 30
0
 40
8.000000000000183
 50
2.040035164553513
 51
21.5047947996703
  0
ARC
  8
1
 62
7
 10
70.40507042253516
 20
39.73478246325698
 30
0
 40
8.000000000000146
 50
338.4952052003297
 51
357.9599648354461
  0
ARC
  8
1
 62
7
 10
79.27500000000013
 20
39.75
 30
0
 40
0.9250000000000037
 50
161.0753555839481
 51
198.9246444160519
  0
ARC
  8
1
 62
7
 10
70.40507042253516
 20
-9.734782463256977
 30
0
 40
8.000000000000185
 50
2.04003516455392
 51
21.50479479967072
  0
ARC
  8
1
 62
7
 10
70.40507042253516
 20
-9.76521753674308
 30
0
 40
8.000000000000144
 50
338.4952052003297
 51
357.9599648354465
  0
ARC
  8
1
 62
7
 10
79.27500000000013
 20
-9.75
 30
0
 40
0.9250000000000037
 50
161.0753555839481
 51
198.9246444160518
  0
ARC
  8
1
 62
7
 10
200.995175672689
 20
15
 30
0
 40
14.99999999999955
 50
332.1818607153447
 51
19.47122063449135
  0
ARC
  8
1
 62
7
 10
200.995175672689
 20
15
 30
0
 40
16.99999999999996
 50
273.3722866834339
 51
278.4565193352705
  0
ARC
  8
1
 62
7
 10
200.995175672689
 20
15
 30
0
 40
18.58741151126338
 50
262.2703129891775
 51
277.7296870108225
  0
ARC
  8
1
 62
7
 10
200.995175672689
 20
15
 30
0
 40
18.58741151126313
 50
246.1486304767326
 51
262.2703129891775
  0
ARC
  8
1
 62
7
 10
200.995175672689
 20
15
 30
0
 40
16.99999999999987
 50
256.8368671305239
 51
261.5434806647295
  0
ARC
  8
1
 62
7
 10
200.995175672689
 20
15
 30
0
 40
18.58741151126254
 50
66.14863047673502
 51
82.2703129891773
  0
ARC
  8
1
 62
7
 10
200.995175672689
 20
15
 30
0
 40
16.99999999999958
 50
76.83686713052332
 51
81.54348066472933
  0
ARC
  8
1
 62
7
 10
200.995175672689
 20
15
 30
0
 40
16.99999999999974
 50
93.70996589206986
 51
98.45651933527067
  0
ARC
  8
1
 62
7
 10
200.995175672689
 20
15
 30
0
 40
18.58741151126299
 50
82.2703129891773
 51
97.7296870108227
  0
ARC
  8
1
 62
7
 10
200.995175672689
 20
15
 30
0
 40
16.99999999999991
 50
267.1340160173982
 51
272.8659839825955
  0
ARC
  8
1
 62
7
 10
200.995175672689
 20
15
 30
0
 40
16.99999999999939
 50
87.13401601740441
 51
93.70996589206986
  0
ARC
  8
1
 62
7
 10
200.995175672689
 20
15
 30
0
 40
16.99999999999944
 50
52.57199445695934
 51
63.29486848053751
  0
ARC
  8
1
 62
7
 10
200.995175672689
 20
15
 30
0
 40
16.99999999999967
 50
98.45651933527067
 51
103.1631328694756
  0
ARC
  8
1
 62
7
 10
200.995175672689
 20
15
 30
0
 40
18.59999999999946
 50
46.53597650166314
 51
65.2248645654917
  0
ARC
  8
1
 62
7
 10
200.995175672689
 20
15
 30
0
 40
18.59999999999951
 50
114.775135434511
 51
133.464023498339
  0
ARC
  8
1
 62
7
 10
200.995175672689
 20
15
 30
0
 40
18.58741151126299
 50
97.7296870108227
 51
113.8513695232677
  0
ARC
  8
1
 62
7
 10
200.995175672689
 20
15
 30
0
 40
17.00000000000005
 50
278.4565193352705
 51
283.1631328694728
  0
ARC
  8
1
 62
7
 10
200.995175672689
 20
15
 30
0
 40
17.00000000000013
 50
232.5719944569575
 51
243.2948684805349
  0
ARC
  8
1
 62
7
 10
200.995175672689
 20
15
 30
0
 40
18.59999999999947
 50
294.7751354345078
 51
313.4640234983364
  0
ARC
  8
1
 62
7
 10
200.995175672689
 20
15
 30
0
 40
18.58741151126338
 50
277.7296870108225
 51
293.8513695232647
  0
ARC
  8
1
 62
7
 10
200.995175672689
 20
15
 30
0
 40
18.60000000000029
 50
226.5359765016615
 51
245.2248645654895
  0
ARC
  8
1
 62
7
 10
200.995175672689
 20
15
 30
0
 40
16.99999999999947
 50
232.5719944569604
 51
243.2948684805349
  0
ARC
  8
1
 62
7
 10
200.995175672689
 20
15
 30
0
 40
16.99999999999982
 50
272.8659839825955
 51
273.3722866834339
  0
ARC
  8
1
 62
7
 10
200.995175672689
 20
15
 30
0
 40
16.99999999999996
 50
266.6277133165661
 51
267.1340160173982
  0
ARC
  8
1
 62
7
 10
200.995175672689
 20
15
 30
0
 40
16.99999999999962
 50
86.29003410793645
 51
87.13401601740441
  0
ARC
  8
1
 62
7
 10
200.995175672689
 20
15
 30
0
 40
16.99999999999948
 50
92.8659839826019
 51
93.70996589206986
  0
ARC
  8
1
 62
7
 10
200.995175672689
 20
15
 30
0
 40
8.999999999999796
 50
308.9424412689786
 51
51.05755873102049
  0
ARC
  8
1
 62
7
 10
200.995175672689
 20
15
 30
0
 40
9.000000000000229
 50
128.9424412689843
 51
231.0575587310166
  0
ARC
  8
1
 62
7
 10
200.995175672689
 20
15
 30
0
 40
17.00000000000054
 50
116.7051315194654
 51
127.4280055430429
  0
ARC
  8
1
 62
7
 10
200.995175672689
 20
15
 30
0
 40
18.59999999999997
 50
195.5938957404695
 51
226.5359765016615
  0
ARC
  8
1
 62
7
 10
200.995175672689
 20
15
 30
0
 40
18.59999999999962
 50
313.4640234983364
 51
46.53597650166314
  0
ARC
  8
1
 62
7
 10
200.995175672689
 20
15
 30
0
 40
17.00000000000028
 50
296.7051315194622
 51
307.4280055430426
  0
ARC
  8
1
 62
7
 10
200.995175672689
 20
15
 30
0
 40
17.00000000000005
 50
261.5434806647295
 51
266.6277133165661
  0
ARC
  8
1
 62
7
 10
200.995175672689
 20
15
 30
0
 40
15.00000000000029
 50
152.1818607153471
 51
199.4712206344898
  0
ARC
  8
1
 62
7
 10
186.995175672689
 20
7.999999999999886
 30
0
 40
2
 50
0
 51
90
  0
ARC
  8
1
 62
7
 10
200.995175672689
 20
15
 30
0
 40
18.59999999999991
 50
164.4061042595312
 51
195.5938957404695
  0
ARC
  8
1
 62
7
 10
200.995175672689
 20
15
 30
0
 40
16.60000000000055
 50
155.0588752410728
 51
162.4700182669279
  0
ARC
  8
1
 62
7
 10
200.995175672689
 20
15
 30
0
 40
18.60000000000013
 50
133.464023498339
 51
164.4061042595312
  0
ARC
  8
1
 62
7
 10
214.995175672689
 20
21.99999999999989
 30
0
 40
2
 50
180
 51
270
  0
ARC
  8
1
 62
7
 10
200.995175672689
 20
15
 30
0
 40
16.60000000000059
 50
335.058875241072
 51
342.4700182669261
  0
ARC
  8
1
 62
7
 10
200.995175672689
 20
15
 30
0
 40
16.99999999999967
 50
81.54348066472933
 51
86.29003410793645
  0
ARC
  8
1
 62
7
 10
200.995175672689
 20
15
 30
0
 40
15.60000000000023
 50
161.3060590766777
 51
198.6939409233231
  0
ARC
  8
1
 62
7
 10
200.995175672689
 20
15
 30
0
 40
15.59999999999939
 50
341.3060590766758
 51
18.69394092332346
  0
ARC
  8
1
 62
7
 10
201.0000000000001
 20
87.00814382286168
 30
0
 40
4.81428571430047
 50
238.7155070856893
 51
258.0115132548045
  0
ARC
  8
1
 62
7
 10
201.0000000000001
 20
87.00814382286168
 30
0
 40
4.81428571430074
 50
258.0115132548045
 51
281.9884867451955
  0
ARC
  8
1
 62
7
 10
201.0000000000001
 20
87.00814382286168
 30
0
 40
4.81428571430074
 50
281.9884867451955
 51
301.2844929143108
  0
ARC
  8
1
 62
3
 10
200.995175672689
 20
15
 30
0
 40
14.99999999999974
 50
130.1709933307093
 51
149.9716332704579
  0
ARC
  8
1
 62
3
 10
200.995175672689
 20
15
 30
0
 40
14.9999999999988
 50
30.02836672954402
 51
49.82900666929352
  0
ARC
  8
1
 62
3
 10
200.995175672689
 20
15
 30
0
 40
14.99999999999981
 50
210.0283667295431
 51
229.8290066692918
  0
ARC
  8
1
 62
3
 10
200.995175672689
 20
15
 30
0
 40
14.99999999999944
 50
310.1709933307054
 51
329.971633270455
  0
CIRCLE
  8
0
 62
3
 10
-139.6924517716659
 20
39.74999913902502
 30
0
 40
2
  0
CIRCLE
  8
0
 62
3
 10
-90.1924517716659
 20
39.74999986961535
 30
0
 40
2
  0
CIRCLE
  8
0
 62
3
 10
-90.1924517716659
 20
-9.75
 30
0
 40
2
  0
CIRCLE
  8
0
 62
3
 10
-139.6924517716659
 20
-9.75
 30
0
 40
2
  0
CIRCLE
  8
0
 62
7
 10
-114.9424517716659
 20
25
 30
0
 40
9
  0
CIRCLE
  8
0
 62
7
 10
-135.2424517716659
 20
26.8
 30
0
 40
3
  0
CIRCLE
  8
0
 62
7
 10
-94.6424517716659
 20
26.8
 30
0
 40
3
  0
CIRCLE
  8
0
 62
7
 10
-114.9424517716659
 20
-8.5
 30
0
 40
3
  0
CIRCLE
  8
1
 62
7
 10
-90.1924517716659
 20
-9.75
 30
0
 40
1.625
  0
CIRCLE
  8
1
 62
7
 10
-139.6924517716659
 20
-9.75
 30
0
 40
1.625
  0
CIRCLE
  8
1
 62
7
 10
-90.1924517716659
 20
39.75
 30
0
 40
1.625
  0
CIRCLE
  8
1
 62
7
 10
-139.6924517716659
 20
39.75
 30
0
 40
1.625
  0
CIRCLE
  8
1
 62
7
 10
-114.9424517716659
 20
25
 30
0
 40
6.75
  0
CIRCLE
  8
1
 62
4
 10
192.5653652422509
 20
7.751494608430789
 30
0
 40
1
  0
CIRCLE
  8
1
 62
4
 10
209.4249861031249
 20
22.24850539156878
 30
0
 40
1
  0
CIRCLE
  8
1
 62
4
 10
196.495175672689
 20
26.7999999999999
 30
0
 40
0.5
  0
CIRCLE
  8
1
 62
7
 10
200.995175672689
 20
15
 30
0
 40
3.74999999999989
  0
CIRCLE
  8
1
 62
7
 10
200.995175672689
 20
15
 30
0
 40
7.99999999999989
  0
CIRCLE
  8
1
 62
7
 10
189.5045090259039
 20
24.6418141452979
 30
0
 40
1.5
  0
CIRCLE
  8
1
 62
7
 10
189.5045090259039
 20
5.358185854701901
 30
0
 40
1.5
  0
CIRCLE
  8
1
 62
7
 10
212.4858423194731
 20
24.6418141452979
 30
0
 40
1.25
  0
CIRCLE
  8
1
 62
7
 10
212.4858423194731
 20
24.6418141452979
 30
0
 40
1.5
  0
CIRCLE
  8
1
 62
7
 10
212.4858423194731
 20
5.358185854701901
 30
0
 40
1.25
  0
CIRCLE
  8
1
 62
7
 10
212.4858423194731
 20
5.358185854701901
 30
0
 40
1.5
  0
CIRCLE
  8
1
 62
7
 10
189.5045090259039
 20
24.6418141452979
 30
0
 40
1.25
  0
CIRCLE
  8
1
 62
7
 10
189.5045090259039
 20
5.358185854701901
 30
0
 40
1.25
  0
CIRCLE
  8
1
 62
7
 10
186.995175672689
 20
7.999999999999886
 30
0
 40
0.8499999999999091
  0
CIRCLE
  8
1
 62
7
 10
214.995175672689
 20
21.99999999999989
 30
0
 40
0.8500000000000796
  0
CIRCLE
  8
1
 62
7
 10
200.995175672689
 20
15
 30
0
 40
1.99999999999989
  0
CIRCLE
  8
1
 62
7
 10
201.0000000000001
 20
68.4938581085587
 30
0
 40
0.650000000000091
  0
CIRCLE
  8
1
 62
4
 10
205.495175672689
 20
3.199999999999989
 30
0
 40
0.5
  0
CIRCLE
  8
1
 62
4
 10
200.995175672689
 20
26.7999999999999
 30
0
 40
0.5
  0
CIRCLE
  8
1
 62
4
 10
205.495175672689
 20
26.7999999999999
 30
0
 40
0.5
  0
CIRCLE
  8
1
 62
4
 10
200.995175672689
 20
3.199999999999704
 30
0
 40
0.5
  0
CIRCLE
  8
1
 62
4
 10
196.495175672689
 20
3.199999999999392
 30
0
 40
0.5
  0
POLYLINE
  8
1
 62
2
 66
1
  0
VERTEX
  8
1
 10
219.6
 20
88.9944915864007
 30
0
 42
0.05831236789117921
  0
VERTEX
  8
1
 10
216.2093757571177
 20
90.39259552434385
 30
0
 42
0.05241242701579262
  0
VERTEX
  8
1
 10
212.7994388478322
 20
90.95140116546152
 30
0
 42
0.0392439228417043
  0
VERTEX
  8
1
 10
209.3772138983489
 20
90.87207080485318
 30
0
 42
0.02405152169742396
  0
VERTEX
  8
1
 10
205.949725534873
 20
90.35576673761825
 30
0
 42
0.00951097024497949
  0
VERTEX
  8
1
 10
202.5239983836101
 20
89.60365125885619
 30
0
 42
-0.004375860255040749
  0
VERTEX
  8
1
 10
199.1070570707652
 20
88.81688666366642
 30
0
 42
-0.01865443781717876
  0
VERTEX
  8
1
 10
195.7059262225439
 20
88.19663524714844
 30
0
 42
-0.03412685018229027
  0
VERTEX
  8
1
 10
192.3276304651513
 20
87.94405930440163
 30
0
 42
-0.0497784045914076
  0
VERTEX
  8
1
 10
188.9791944247929
 20
88.26032113052546
 30
0
 42
-0.06107461418712028
  0
VERTEX
  8
1
 10
185.667642727674
 20
89.34658302061936
 30
0
 42
-0.06230013768680852
  0
VERTEX
  8
1
 10
182.3999999999999
 20
91.4040072697828
 30
0
  0
SEQEND
  8
1
  0
POLYLINE
  8
1
 62
7
 66
1
  0
VERTEX
  8
1
 10
204.749907886964
 20
73.8584733016184
 30
0
 42
0.04341380924517157
  0
VERTEX
  8
1
 10
204.213680066328
 20
73.72304005862034
 30
0
 42
0.03586910706858721
  0
VERTEX
  8
1
 10
203.7409564350072
 20
73.51700668588623
 30
0
 42
0.02357268601569466
  0
VERTEX
  8
1
 10
203.3140574741125
 20
73.26552354008952
 30
0
 42
0.008885461588979363
  0
VERTEX
  8
1
 10
202.9153036647543
 20
72.99374097790367
 30
0
 42
-0.007087923818231375
  0
VERTEX
  8
1
 10
202.5270154880435
 20
72.72680935600212
 30
0
 42
-0.02416084751438925
  0
VERTEX
  8
1
 10
202.1315134250908
 20
72.48987903105837
 30
0
 42
-0.04127268643160885
  0
VERTEX
  8
1
 10
201.7111179570067
 20
72.30810035974579
 30
0
 42
-0.05439822759879626
  0
VERTEX
  8
1
 10
201.248149564902
 20
72.20662369873793
 30
0
  0
VERTEX
  8
1
 10
200.995175672689
 20
72.19385810855869
 30
0
  0
SEQEND
  8
1
  0
POLYLINE
  8
1
 62
7
 66
1
  0
VERTEX
  8
1
 10
197.2404434584139
 20
73.8584733016184
 30
0
 42
-0.04341380924519478
  0
VERTEX
  8
1
 10
197.77667127905
 20
73.72304005862034
 30
0
 42
-0.03586910706848993
  0
VERTEX
  8
1
 10
198.2493949103707
 20
73.51700668588623
 30
0
 42
-0.02357268601572933
  0
VERTEX
  8
1
 10
198.6762938712654
 20
73.26552354008952
 30
0
 42
-0.008885461588940869
  0
VERTEX
  8
1
 10
199.0750476806234
 20
72.99374097790368
 30
0
 42
0.007087923818104573
  0
VERTEX
  8
1
 10
199.463335857334
 20
72.72680935600212
 30
0
 42
0.02416084751432148
  0
VERTEX
  8
1
 10
199.8588379202868
 20
72.48987903105837
 30
0
 42
0.04127268643160885
  0
VERTEX
  8
1
 10
200.2792333883709
 20
72.30810035974579
 30
0
 42
0.05439822759864293
  0
VERTEX
  8
1
 10
200.7422017804758
 20
72.20662369873791
 30
0
  0
VERTEX
  8
1
 10
200.995175672689
 20
72.19385810855869
 30
0
  0
SEQEND
  8
1
  0
ARC
  8
1
 62
7
 10
32.8
 20
44.5
 30
0
 40
1
 50
90
 51
180
  0
ARC
  8
1
 62
7
 10
32.8
 20
-14.5
 30
0
 40
0.9999999999999965
 50
180
 51
270
  0
ARC
  8
1
 62
7
 10
-96.042451771666
 20
27.00000000000005
 30
0
 40
0.09999999999990195
 50
90
 51
180
  0
ARC
  8
1
 62
7
 10
-96.042451771666
 20
26.59999999999995
 30
0
 40
0.09999999999990905
 50
180
 51
270
  0
ARC
  8
1
 62
7
 10
-94.84245177166595
 20
25.40000000000002
 30
0
 40
0.09999999999990905
 50
180
 51
270
  0
ARC
  8
1
 62
7
 10
-94.44245177166586
 20
25.40000000000002
 30
0
 40
0.1000000000000192
 50
270
 51
0
  0
ARC
  8
1
 62
7
 10
-93.24245177166604
 20
26.59999999999995
 30
0
 40
0.09999999999990195
 50
270
 51
0
  0
ARC
  8
1
 62
7
 10
-93.24245177166604
 20
27.00000000000005
 30
0
 40
0.1000000000001364
 50
0
 51
90
  0
ARC
  8
1
 62
7
 10
-94.44245177166586
 20
28.19999999999998
 30
0
 40
0.09999999999990905
 50
0
 51
90
  0
ARC
  8
1
 62
7
 10
-94.84245177166595
 20
28.19999999999998
 30
0
 40
0.1000000000000192
 50
90
 51
180
  0
ARC
  8
1
 62
7
 10
-136.642451771666
 20
27.00000000000005
 30
0
 40
0.09999999999990195
 50
90
 51
180
  0
ARC
  8
1
 62
7
 10
-136.642451771666
 20
26.59999999999995
 30
0
 40
0.09999999999990905
 50
180
 51
270
  0
ARC
  8
1
 62
7
 10
-135.4424517716659
 20
25.40000000000002
 30
0
 40
0.100000000000108
 50
180
 51
270
  0
ARC
  8
1
 62
7
 10
-135.042451771666
 20
25.40000000000002
 30
0
 40
0.1000000000000192
 50
270
 51
0
  0
ARC
  8
1
 62
7
 10
-133.8424517716659
 20
26.59999999999995
 30
0
 40
0.09999999999990195
 50
270
 51
0
  0
ARC
  8
1
 62
7
 10
-133.8424517716659
 20
27.00000000000005
 30
0
 40
0.09999999999999432
 50
0
 51
90
  0
ARC
  8
1
 62
7
 10
-135.042451771666
 20
28.19999999999998
 30
0
 40
0.100000000000108
 50
0
 51
90
  0
ARC
  8
1
 62
7
 10
-135.4424517716659
 20
28.19999999999998
 30
0
 40
0.1000000000000192
 50
90
 51
180
  0
ARC
  8
1
 62
7
 10
-116.3424517716658
 20
-8.299999999999898
 30
0
 40
0.09999999999990905
 50
90
 51
180
  0
ARC
  8
1
 62
7
 10
-116.3424517716658
 20
-8.699999999999989
 30
0
 40
0.100000000000108
 50
180
 51
270
  0
ARC
  8
1
 62
7
 10
-115.1424517716659
 20
-9.899999999999869
 30
0
 40
0.09999999999999432
 50
180
 51
270
  0
ARC
  8
1
 62
7
 10
-114.7424517716659
 20
-9.899999999999869
 30
0
 40
0.1000000000001293
 50
270
 51
0
  0
ARC
  8
1
 62
7
 10
-113.5424517716658
 20
-8.699999999999989
 30
0
 40
0.09999999999990905
 50
270
 51
0
  0
ARC
  8
1
 62
7
 10
-113.5424517716658
 20
-8.299999999999898
 30
0
 40
0.09999999999989484
 50
0
 51
90
  0
ARC
  8
1
 62
7
 10
-114.7424517716659
 20
-7.100000000000023
 30
0
 40
0.09999999999999432
 50
0
 51
90
  0
ARC
  8
1
 62
7
 10
-115.1424517716659
 20
-7.100000000000023
 30
0
 40
0.1000000000001364
 50
90
 51
180
  0
ARC
  8
1
 62
7
 10
77.1038560597231
 20
42.40458696655156
 30
0
 40
0.7999999999999379
 50
21.50479479967415
 51
87.86864827537735
  0
ARC
  8
1
 62
7
 10
77.1038560597231
 20
37.09541303344849
 30
0
 40
0.7999999999999999
 50
272.1313517246227
 51
338.4952052003258
  0
ARC
  8
1
 62
7
 10
75.90000000000013
 20
36.35000000000002
 30
0
 40
0.1000000000001364
 50
180
 51
275.0000000000779
  0
ARC
  8
1
 62
7
 10
75.90000000000013
 20
43.15000000000003
 30
0
 40
0.1000000000000072
 50
84.99999999992211
 51
180
  0
ARC
  8
1
 62
7
 10
77.1038560597231
 20
-7.095413033448381
 30
0
 40
0.7999999999999197
 50
21.50479479967083
 51
87.86864827537735
  0
ARC
  8
1
 62
7
 10
77.1038560597231
 20
-12.40458696655151
 30
0
 40
0.80000000000011
 50
272.1313517246224
 51
338.4952052003221
  0
ARC
  8
1
 62
7
 10
75.90000000000013
 20
-13.15000000000003
 30
0
 40
0.1000000000001364
 50
180
 51
275.0000000000779
  0
ARC
  8
1
 62
7
 10
75.90000000000013
 20
-6.349999999999966
 30
0
 40
0.1000000000000072
 50
84.99999999992211
 51
180
  0
ARC
  8
1
 62
7
 10
76.3
 20
34.5
 30
0
 40
0.5
 50
180
 51
270
  0
ARC
  8
1
 62
7
 10
76.3
 20
-4.5
 30
0
 40
0.5
 50
90
 51
180
  0
ARC
  8
1
 62
7
 10
76.8
 20
-3.5
 30
0
 40
0.5
 50
270
 51
0
  0
ARC
  8
1
 62
7
 10
-140.4424517716659
 20
40.5
 30
0
 40
5
 50
90
 51
180
  0
ARC
  8
1
 62
7
 10
-89.4424517716659
 20
40.5
 30
0
 40
5
 50
0
 51
90
  0
ARC
  8
1
 62
7
 10
-89.4424517716659
 20
-10.5
 30
0
 40
5
 50
270
 51
0
  0
ARC
  8
1
 62
7
 10
-140.4424517716659
 20
-10.5
 30
0
 40
5
 50
180
 51
270
  0
ARC
  8
1
 62
7
 10
-140.4424517716659
 20
40.5
 30
0
 40
4.5
 50
270
 51
0
  0
ARC
  8
1
 62
7
 10
-140.4424517716659
 20
-10.5
 30
0
 40
4.5
 50
0
 51
90
  0
ARC
  8
1
 62
7
 10
-89.4424517716659
 20
-10.5
 30
0
 40
4.49999999999999
 50
90
 51
180
  0
ARC
  8
1
 62
7
 10
-89.4424517716659
 20
40.5
 30
0
 40
4.5
 50
180
 51
270
  0
ARC
  8
1
 62
7
 10
32.3
 20
36.5
 30
0
 40
0.4999999999999965
 50
180
 51
270
  0
ARC
  8
1
 62
7
 10
32.3
 20
-6.500000000000004
 30
0
 40
0.5
 50
90
 51
180
  0
ARC
  8
1
 62
7
 10
210.895175672689
 20
15.89999999999981
 30
0
 40
0.5
 50
180
 51
270
  0
ARC
  8
1
 62
7
 10
214.395175672689
 20
15.89999999999981
 30
0
 40
0.5
 50
270
 51
0
  0
ARC
  8
1
 62
7
 10
214.395175672689
 20
14.0999999999998
 30
0
 40
0.5
 50
0
 51
90
  0
ARC
  8
1
 62
7
 10
210.895175672689
 20
14.0999999999998
 30
0
 40
0.5
 50
90
 51
180
  0
ARC
  8
1
 62
7
 10
191.09517567269
 20
15.89999999999981
 30
0
 40
0.5
 50
270
 51
0
  0
ARC
  8
1
 62
7
 10
187.59517567269
 20
15.89999999999981
 30
0
 40
0.5
 50
180
 51
270
  0
ARC
  8
1
 62
7
 10
187.59517567269
 20
14.0999999999998
 30
0
 40
0.5
 50
90
 51
180
  0
ARC
  8
1
 62
7
 10
191.09517567269
 20
14.0999999999998
 30
0
 40
0.5
 50
0
 51
90
  0
ARC
  8
1
 62
7
 10
207.532481971829
 20
29.1641669840198
 30
0
 40
3.000000000000433
 50
70.95764953691457
 51
105.065371762793
  0
ARC
  8
1
 62
7
 10
200.995175672689
 20
33.0999999999998
 30
0
 40
2.499999999999445
 50
254.1097329771758
 51
285.8902670228492
  0
ARC
  8
1
 62
7
 10
200.995175672689
 20
33.0999999999998
 30
0
 40
2.499999999999445
 50
254.1097329771758
 51
285.8902670228492
  0
ARC
  8
1
 62
7
 10
194.457869373548
 20
29.1641669840198
 30
0
 40
3.000000000000968
 50
74.93462823718969
 51
109.0423504630849
  0
ARC
  8
1
 62
7
 10
194.478890044193
 20
27.95330157171671
 30
0
 40
2.4999999999999
 50
75.34425930262613
 51
116.7051315194865
  0
ARC
  8
1
 62
7
 10
200.995175672689
 20
33.99999999999989
 30
0
 40
5.000000000000369
 50
256.6758163180702
 51
283.3241836819291
  0
ARC
  8
1
 62
7
 10
207.5114613011861
 20
27.95330157171671
 30
0
 40
2.50000000000022
 50
63.29486848055657
 51
104.6557406974211
  0
ARC
  8
1
 62
7
 10
207.5114613011861
 20
2.046698428282895
 30
0
 40
2.500000000000474
 50
255.3442593025791
 51
296.7051315194454
  0
ARC
  8
1
 62
7
 10
200.995175672689
 20
-4.000000000000114
 30
0
 40
5.000000000000155
 50
76.6758163180703
 51
103.3241836819303
  0
ARC
  8
1
 62
7
 10
200.995175672689
 20
-4.000000000000114
 30
0
 40
5.000000000000155
 50
76.6758163180703
 51
103.3241836819303
  0
ARC
  8
1
 62
7
 10
207.532481971829
 20
0.8358330159798015
 30
0
 40
3.000000000000269
 50
289.0423504630865
 51
294.7751354345049
  0
ARC
  8
1
 62
7
 10
207.532481971829
 20
0.8358330159798015
 30
0
 40
3.000000000000752
 50
254.9346282372071
 51
289.0423504630865
  0
ARC
  8
1
 62
7
 10
200.995175672689
 20
-3.100000000000193
 30
0
 40
2.499999999999722
 50
74.10973297715053
 51
105.8902670228244
  0
ARC
  8
1
 62
7
 10
200.995175672689
 20
-3.100000000000193
 30
0
 40
2.499999999999722
 50
74.10973297715053
 51
105.8902670228244
  0
ARC
  8
1
 62
7
 10
194.457869373548
 20
0.8358330159798015
 30
0
 40
3.00000000000026
 50
250.957649536914
 51
285.0653717628101
  0
ARC
  8
1
 62
7
 10
194.478890044193
 20
2.046698428282895
 30
0
 40
2.500000000000987
 50
243.2948684805115
 51
284.6557406973737
  0
ARC
  8
1
 62
7
 10
206.995175672689
 20
24.99999999999989
 30
0
 40
1
 50
0
 51
90
  0
ARC
  8
1
 62
7
 10
206.995175672689
 20
22.99999999999989
 30
0
 40
1
 50
270
 51
0
  0
ARC
  8
1
 62
7
 10
206.995175672689
 20
6.999999999999886
 30
0
 40
1
 50
0
 51
90
  0
ARC
  8
1
 62
7
 10
206.995175672689
 20
4.999999999999886
 30
0
 40
1
 50
270
 51
0
  0
ARC
  8
1
 62
7
 10
211.995175672689
 20
24
 30
0
 40
2
 50
180
 51
270
  0
ARC
  8
1
 62
7
 10
211.995175672689
 20
6
 30
0
 40
1.999999999999886
 50
90
 51
180
  0
ARC
  8
1
 62
7
 10
194.995175672689
 20
6.999999999999886
 30
0
 40
1
 50
90
 51
180
  0
ARC
  8
1
 62
7
 10
194.995175672689
 20
4.999999999999886
 30
0
 40
1
 50
180
 51
270
  0
ARC
  8
1
 62
7
 10
194.995175672689
 20
24.99999999999989
 30
0
 40
1
 50
90
 51
180
  0
ARC
  8
1
 62
7
 10
194.995175672689
 20
22.99999999999989
 30
0
 40
1
 50
180
 51
270
  0
ARC
  8
1
 62
7
 10
189.995175672689
 20
6
 30
0
 40
2
 50
0
 51
90
  0
ARC
  8
1
 62
7
 10
189.995175672689
 20
24
 30
0
 40
2.00000000000011
 50
270
 51
0
  0
ARC
  8
1
 62
7
 10
79.3
 20
31.59999999999999
 30
0
 40
1.999999999999996
 50
90
 51
180
  0
ARC
  8
1
 62
7
 10
79.3
 20
-1.599999999999994
 30
0
 40
2
 50
180
 51
270
  0
ARC
  8
1
 62
7
 10
208.0000000000001
 20
72.69385810855869
 30
0
 40
1
 50
270
 51
0
  0
ARC
  8
1
 62
7
 10
194.0000000000001
 20
72.69385810855869
 30
0
 40
1
 50
180
 51
270
  0
ARC
  8
1
 62
7
 10
130.0000000000001
 20
21.99999999999989
 30
0
 40
1
 50
6.310220488023617e-012
 51
90
  0
ARC
  8
1
 62
7
 10
130.0000000000001
 20
8
 30
0
 40
1
 50
270
 51
0
  0
ARC
  8
1
 62
7
 10
204.695175672689
 20
74.1534383583973
 30
0
 40
0.3000000000000312
 50
280.5119568966119
 51
0
  0
ARC
  8
1
 62
7
 10
197.2951756726891
 20
74.1534383583973
 30
0
 40
0.3000000000001251
 50
180
 51
259.4880431033453
  0
LINE
  8
1
 62
2
 10
66.18937387082043
 20
55.5
 30
0
 11
41.77719918710528
 21
55.5
 31
0
  0
LINE
  8
1
 62
2
 10
41.77719918710528
 20
55.5
 30
0
 11
50.68166032517927
 21
46.595538861926
 31
0
  0
SOLID
  8
1
 62
2
 10
47.88096328271168
 20
48.74458928776424
 30
0
 11
48.53260989934103
 21
49.39623590439359
 31
0
 12
50.68166032517927
 22
46.595538861926
 32
0
 13
50.68166032517927
 23
46.595538861926
 33
0
  0
LINE
  8
1
 62
2
 10
108.387862594611
 20
43.59999999999999
 30
0
 11
85.86060609144499
 21
43.60000000000016
 31
0
  0
LINE
  8
1
 62
2
 10
85.86060609144499
 20
43.60000000000016
 30
0
 11
100.7349671166552
 21
28.72563897479
 31
0
  0
SOLID
  8
1
 62
2
 10
97.93427007418761
 20
30.87468940062824
 30
0
 11
98.58591669081696
 21
31.52633601725759
 31
0
 12
100.7349671166552
 22
28.72563897479
 32
0
 13
100.7349671166552
 23
28.72563897479
 33
0
  0
LINE
  8
1
 62
2
 10
166.6179768547441
 20
35.96395144837498
 30
0
 11
185.081224224314
 21
35.96395144837498
 31
0
  0
LINE
  8
1
 62
2
 10
185.081224224314
 20
35.96395144837498
 30
0
 11
196.495175672689
 21
24.5499999999999
 31
0
  0
SOLID
  8
1
 62
2
 10
193.6944786302214
 20
26.69905042583816
 30
0
 11
194.3461252468508
 21
27.3506970424675
 31
0
 12
196.495175672689
 22
24.5499999999999
 32
0
 13
196.495175672689
 23
24.5499999999999
 33
0
  0
LINE
  8
1
 62
2
 10
237.373779583505
 20
-7.965356541246507
 30
0
 11
218.9105322139351
 21
-7.965356541246507
 31
0
  0
LINE
  8
1
 62
2
 10
218.9105322139351
 20
-7.965356541246507
 30
0
 11
205.495175672689
 21
5.449999999999704
 31
0
  0
SOLID
  8
1
 62
2
 10
208.2958727151566
 20
3.300949574161453
 30
0
 11
207.6442260985272
 21
2.649302957532104
 31
0
 12
205.495175672689
 22
5.449999999999704
 32
0
 13
205.495175672689
 23
5.449999999999704
 33
0
  0
TEXT
  8
1
 62
2
 10
31.79606747696891
 20
56.17404246801614
 30
0
 40
3.5
  1
ネームプレート
 41
0.9
 72
1
 73
2
 11
53.84606747696891
 21
57.92404246801614
 31
0
  0
TEXT
  8
1
 62
2
 10
76.84078904720899
 20
43.8661038299997
 30
0
 40
3.5
  1
ネームプレート
 41
0.8100000000000001
 72
1
 73
2
 11
96.68578904720899
 21
45.6161038299997
 31
0
  0
TEXT
  8
1
 62
2
 10
177.22209829044
 20
51.08205106992489
 30
0
 40
2
  1
±0.05
 41
0.9
 72
1
 73
2
 11
182.62209829044
 21
52.08205106992489
 31
0
  0
TEXT
  8
1
 62
2
 10
214.010022810761
 20
-7.627411195118299
 30
0
 40
3.5
  1
(+)タンシ
 41
0.9
 72
1
 73
2
 11
228.185022810761
 21
-5.877411195118299
 31
0
  0
TEXT
  8
1
 62
2
 10
161.71746745157
 20
37.14313040960221
 30
0
 40
3.5
  1
(-)タンシ
 41
0.9
 72
1
 73
2
 11
175.89246745157
 21
38.89313040960221
 31
0
  0
TEXT
  8
1
 62
4
 10
193.91868679838
 20
6.679336293448904
 30
0
 40
2
  1
-
 50
90
 41
0.9
  7
COMPLEX
 72
1
 73
2
 11
192.91868679838
 21
7.579336293448904
 31
0
  0
TEXT
  8
1
 62
4
 10
210.421664546997
 20
21.17066370655178
 30
0
 40
2
  1
+
 50
90
 41
0.9
  7
COMPLEX
 72
1
 73
2
 11
209.421664546997
 21
22.07066370655178
 31
0
  0
TEXT
  8
1
 62
7
 10
97.56493078426848
 20
85.68931355180801
 30
0
 40
4
  1
ＤＭＥ３７Ｂ６ＨＦ
 41
0.9
 72
1
 73
2
 11
129.9649307842685
 21
87.68931355180801
 31
0
  0
DIMENSION
  8
1
  6
CONTINUOUS
 62
2
  2
*D0
  3
DMST_1
 10
75.8
 20
65.5
 30
0
 11
53.8
 21
68.09999999999999
 31
0
 12
0
 22
0
 32
0
 70
0
 13
31.8
 23
44.5
 33
0
 14
75.8
 24
45
 34
0
 53
0
  0
DIMENSION
  8
1
  6
CONTINUOUS
 62
2
  2
*D1
  3
DMST_2
 10
-74.4424517716659
 20
15
 30
0
 11
-77.0424517716659
 21
5.19020904315054
 31
0
 12
0
 22
0
 32
0
 70
0
 13
-103.438383645203
 23
25
 33
0
 14
-81.65913767063398
 24
15
 34
0
 50
90
 53
0
  0
DIMENSION
  8
1
  6
CONTINUOUS
 62
2
  2
*D2
  3
DMST_1
 10
31.8
 20
75.5
 30
0
 11
15.8
 21
78.09999999999999
 31
0
 12
0
 22
0
 32
0
 70
0
 13
-0.2000000000000028
 23
28
 33
0
 14
31.8
 24
44.5
 34
0
 53
0
  0
DIMENSION
  8
1
  6
CONTINUOUS
 62
2
  2
*D3
  3
DMST_1
 10
26.8
 20
65.5
 30
0
 11
29.3
 21
68.09999999999999
 31
0
 12
0
 22
0
 32
0
 70
0
 13
31.8
 23
44.5
 33
0
 14
26.8
 24
33.99981600930903
 34
0
 53
0
  0
DIMENSION
  8
1
  6
CONTINUOUS
 62
2
  2
*D4
  3
DMST_1
 10
-30.2
 20
33.99981600930903
 30
0
 11
-32.8
 21
42.9822685809956
 31
0
 12
0
 22
0
 32
0
 70
0
  1
%%c<>
 13
26.8
 23
16.00018399069103
 33
0
 14
26.8
 24
33.99981600930903
 34
0
 50
90
 53
0
  0
DIMENSION
  8
1
  6
CONTINUOUS
 62
2
  2
*D5
  3
DMST_1
 10
12.8
 20
65.5
 30
0
 11
6.299999999999999
 21
68.09999999999999
 31
0
 12
0
 22
0
 32
0
 70
0
 13
-0.2000000000000028
 23
28
 33
0
 14
12.8
 24
28
 34
0
 53
0
  0
DIMENSION
  8
1
  6
CONTINUOUS
 62
2
  2
*D6
  3
DMST_3
 10
-20.2
 20
29.00024539811398
 30
0
 11
-23.6
 21
46.1494734258408
 31
0
 12
0
 22
0
 32
0
 70
0
  1
%%c<>
 13
-0.2000000000000028
 23
21
 33
0
 14
18.18580273375919
 24
29.00024539811398
 34
0
 50
90
 53
0
  0
DIMENSION
  8
1
  6
CONTINUOUS
 62
2
  2
*D7
  3
DMST_1
 10
-84.4424517716659
 20
65.5
 30
0
 11
-112.030965955821
 21
68.0155361917343
 31
0
 12
0
 22
0
 32
0
 70
0
  1
□<>
 13
-145.4424517716659
 23
40.5
 33
0
 14
-84.4424517716659
 24
40.5
 34
0
 53
0
  0
DIMENSION
  8
1
  6
CONTINUOUS
 62
2
  2
*D8
  3
DMST_4
 10
-90.19245177166592
 20
55.5
 30
0
 11
-114.9424517716659
 21
58.1
 31
0
 12
0
 22
0
 32
0
 70
0
 13
-139.6924517716659
 23
45.35
 33
0
 14
-90.19245177166592
 24
45.34999999999999
 34
0
 53
0
  0
DIMENSION
  8
1
  6
CONTINUOUS
 62
2
  2
*D9
  3
DMST_4
 10
-64.4424517716659
 20
-9.749999999999989
 30
0
 11
-67.0424517716659
 21
15
 31
0
 12
0
 22
0
 32
0
 70
0
 13
-84.59245177166591
 23
39.75
 33
0
 14
-84.59245177166591
 24
-9.749999999999989
 34
0
 50
90
 53
0
  0
DIMENSION
  8
1
  6
CONTINUOUS
 62
2
  2
*D10
  3
DMST_5
 10
127.0000000000001
 20
65.5
 30
0
 11
122.61260531607
 21
68.09999999999999
 31
0
 12
0
 22
0
 32
0
 70
0
  1
(<>
 13
131.0000000000001
 23
22
 33
0
 14
127.0000000000001
 24
28.5
 34
0
 53
0
  0
DIMENSION
  8
1
  6
CONTINUOUS
 62
2
  2
*D11
  3
DMST_1
 10
157.5999999999997
 20
33.59999999999991
 30
0
 11
154.5733333333331
 21
14.99999999999989
 31
0
 12
0
 22
0
 32
0
 70
0
  1
φ<>
 13
119.8
 23
-3.600000000000108
 33
0
 14
119.8
 24
33.59999999999988
 34
0
 50
90
 53
0
  0
DIMENSION
  8
1
  6
CONTINUOUS
 62
2
  2
*D12
  3
DMST_1
 10
172.3999999999995
 20
68.49385810855861
 30
0
 11
169.7831582765301
 21
80.93086545248841
 31
0
 12
0
 22
0
 32
0
 70
0
  1
2-3.2
 13
199.6250000000001
 23
65.2938581085586
 33
0
 14
200.155
 24
68.4938581085587
 34
0
 50
90
 53
0
  0
DIMENSION
  8
1
  6
CONTINUOUS
 62
2
  2
*D13
  3
DMST_1
 10
162.3999999999994
 20
71.6438581085587
 30
0
 11
159.7825174391801
 21
82.2993741986524
 31
0
 12
0
 22
0
 32
0
 70
0
  1
2-6.35
 13
199.6250000000001
 23
65.2938581085586
 33
0
 14
198.2500000000001
 24
71.6438581085587
 34
0
 50
90
 53
0
  0
DIMENSION
  8
1
  6
CONTINUOUS
 62
2
  2
*D14
  3
DMST_2
 10
229.5999999999995
 20
71.69385810855866
 30
0
 11
226.8394460012201
 21
79.87816641697839
 31
0
 12
0
 22
0
 32
0
 70
0
 13
202.3750000000001
 23
65.2938581085586
 33
0
 14
208.0000000000001
 24
71.69385810855869
 34
0
 50
90
 53
0
  0
DIMENSION
  8
1
  6
CONTINUOUS
 62
2
  2
*D15
  3
DMST_1
 10
203.3749999999994
 20
52.85554879312742
 30
0
 11
221.4706809201101
 21
55.45554879312741
 31
0
 12
0
 22
0
 32
0
 70
0
  1
2-4.75XT.05
 13
198.6250000000001
 23
66.2938581085586
 33
0
 14
203.3750000000001
 24
66.2938581085586
 34
0
 53
0
  0
DIMENSION
  8
1
  6
CONTINUOUS
 62
2
  2
*D16
  3
DMST_1
 10
203.7499999999994
 20
43.90760699128541
 30
0
 11
213.4701682502301
 21
46.5076069912854
 31
0
 12
0
 22
0
 32
0
 70
0
  1
2-5.5
 13
198.2500000000001
 23
71.69385810855869
 33
0
 14
203.7500000000001
 24
71.6438581085587
 34
0
 53
0
  0
DIMENSION
  8
1
  6
CONTINUOUS
 62
2
  2
*D17
  3
DMST_1
 10
147.3999999999998
 20
6.999999999999972
 30
0
 11
144.3733333333331
 21
15
 31
0
 12
0
 22
0
 32
0
 70
0
  1
φ<>
 13
130.0000000000001
 23
23
 33
0
 14
130.0000000000001
 24
7
 34
0
 50
90
 53
0
  0
DIMENSION
  8
1
  6
CONTINUOUS
 62
2
  2
*D18
  3
DMST_5
 10
229.5951756726889
 20
24.27499999999978
 30
0
 11
226.995175672689
 21
14.9999999999998
 31
0
 12
0
 22
0
 32
0
 70
0
  1
18.6
 13
206.628969246475
 23
5.724999999999795
 33
0
 14
206.628969246475
 24
24.27499999999981
 34
0
 50
90
 53
0
  0
DIMENSION
  8
1
  6
CONTINUOUS
 62
2
  2
*D19
  3
DMST_1
 10
131.0000000000001
 20
75.5
 30
0
 11
81.40000000000006
 21
78.09999999999999
 31
0
 12
0
 22
0
 32
0
 70
0
 13
31.8
 23
44.5
 33
0
 14
131.0000000000001
 24
22
 34
0
 53
0
  0
DIMENSION
  8
1
  6
CONTINUOUS
 62
2
  2
*D20
  3
DMST_2
 10
131.0000000000001
 20
75.5
 30
0
 11
134.2
 21
78.09999999999999
 31
0
 12
0
 22
0
 32
0
 70
0
 13
137.3999999999999
 23
24.5
 33
0
 14
131.0000000000001
 24
22
 34
0
 53
0
  0
DIMENSION
  8
1
  6
CONTINUOUS
 62
2
  2
*D21
  3
DMST_6
 10
-10.2
 20
28
 30
0
 11
-13.95
 21
44.5147870543078
 31
0
 12
0
 22
0
 32
0
 70
0
 13
-0.2000000000000028
 23
21
 33
0
 14
-0.2000000000000028
 24
28
 34
0
 50
90
 53
0
  0
DIMENSION
  8
1
  6
CONTINUOUS
 62
2
  2
*D23
  3
DMST_7
 10
201.3731392348735
 20
69.02608654766939
 30
0
 11
170.22156960946
 21
52.2091078474499
 31
0
 12
0
 22
0
 32
0
 70
3
  1
1.3
 15
200.6268607651258
 25
67.96162966944867
 35
0
 40
0
 53
0
  0
INSERT
  8
1
  2
*D22
 10
0
 20
0
 30
0
  0
ENDSEC
  0
EOF
