  0
SECTION
  2
HEADER
  9
$ACADVER
  1
AC1009
  9
$INSBASE
 10
0
 20
0
  9
$EXTMIN
 10
-149.159808977786
 20
-30.48891641381363
  9
$EXTMAX
 10
247.373779583505
 20
94.04314228182059
  9
$LIMMIN
 10
-149.159808977786
 20
-30.48891641381363
  9
$LIMMAX
 10
247.373779583505
 20
94.04314228182059
  9
$VIEWCTR
 10
10
 20
10
  9
$VIEWSIZE
 40
10
  9
$SNAPMODE
 70
0
  9
$SNAPUNIT
 10
1
 20
1
  9
$SNAPBASE
 10
0
 20
0
  9
$SNAPANG
 50
0
  9
$SNAPSTYLE
 70
0
  9
$SNAPISOPAIR
 70
0
  9
$GRIDMODE
 70
0
  9
$GRIDUNIT
 10
0
 20
0
  9
$ORTHOMODE
 70
0
  9
$REGENMODE
 70
1
  9
$FILLMODE
 70
1
  9
$QTEXTMODE
 70
0
  9
$DRAGMODE
 70
2
  9
$LTSCALE
 40
1
  9
$OSMODE
 70
0
  9
$ATTMODE
 70
1
  9
$TEXTSIZE
 40
3.5
  9
$TRACEWID
 40
0.5
  9
$TEXTSTYLE
  7
STANDARD
  9
$CLAYER
  8
0
  9
$CELTYPE
  6
BYLAYER
  9
$CECOLOR
 62
256
  9
$DIMSCALE
 40
1
  9
$DIMASZ
 40
0.18
  9
$DIMEXO
 40
0.0625
  9
$DIMDLI
 40
0.38
  9
$DIMRND
 40
0
  9
$DIMDLE
 40
0
  9
$DIMEXE
 40
0.18
  9
$DIMTP
 40
0
  9
$DIMTM
 40
0
  9
$DIMTXT
 40
0.18
  9
$DIMCEN
 40
0.09
  9
$DIMTSZ
 40
0
  9
$DIMTOL
 70
0
  9
$DIMLIM
 70
0
  9
$DIMTIH
 70
1
  9
$DIMTOH
 70
1
  9
$DIMSE1
 70
0
  9
$DIMSE2
 70
0
  9
$DIMTAD
 70
0
  9
$DIMZIN
 70
0
  9
$DIMBLK
  1

  9
$DIMASO
 70
1
  9
$DIMSHO
 70
1
  9
$DIMPOST
  1

  9
$DIMAPOST
  1

  9
$DIMALT
 70
0
  9
$DIMALTD
 70
2
  9
$DIMALTF
 40
25.4
  9
$DIMLFAC
 40
1
  9
$DIMTOFL
 70
0
  9
$DIMTVP
 40
0
  9
$DIMTIX
 70
0
  9
$DIMSOXD
 70
0
  9
$DIMSAH
 70
0
  9
$DIMBLK1
  1

  9
$DIMBLK2
  1

  9
$DIMSTYLE
  2
*UNNAMED
  9
$DIMCLRD
 70
0
  9
$DIMCLRE
 70
0
  9
$DIMCLRT
 70
0
  9
$DIMTFAC
 40
1
  9
$DIMGAP
 40
0.09
  9
$LUNITS
 70
2
  9
$LUPREC
 70
4
  9
$AXISMODE
 70
0
  9
$AXISUNIT
 10
0
 20
0
  9
$SKETCHINC
 40
0.1
  9
$FILLETRAD
 40
2
  9
$AUNITS
 70
0
  9
$AUPREC
 70
0
  9
$MENU
  1
ACAD
  9
$ELEVATION
 40
0
  9
$THICKNESS
 40
0
  9
$VIEWDIR
 10
0
 20
0
 30
1
  9
$LIMCHECK
 70
0
  9
$BLIPMODE
 70
1
  9
$CHAMFERA
 40
0
  9
$CHAMFERB
 40
0
  9
$FASTZOOM
 70
1
  9
$SKPOLY
 70
0
  9
$ANGBASE
 50
0
  9
$ANGDIR
 70
0
  9
$PDMODE
 70
0
  9
$PDSIZE
 40
0
  9
$PLINEWID
 40
0
  9
$COORDS
 70
2
  0
ENDSEC
  0
SECTION
  2
TABLES
  0
TABLE
  2
DIMSTYLE
 70
6
  0
DIMSTYLE
  2
DMST_1
 70
0
  3

  4

  5

  6

  7

 40
1
 41
3.2
 42
1
 43
7
 44
1
 45
0
 46
0
 47
0.5
 48
0.5
140
3.2
141
0
142
0
143
25.4
144
1
145
0
146
0.6
147
0.09
 71
1
 72
0
 73
0
 74
0
 75
0
 76
0
 77
1
 78
9
170
0
171
2
172
0
173
0
174
0
175
0
176
2
177
2
178
2
  0
DIMSTYLE
  2
DMST_2
 70
0
  3

  4

  5

  6

  7

 40
1
 41
3.2
 42
1
 43
7
 44
1
 45
0
 46
0
 47
0
 48
0
140
3.2
141
0
142
0
143
25.4
144
1
145
0
146
1
147
0.09
 71
0
 72
0
 73
0
 74
0
 75
0
 76
0
 77
1
 78
9
170
0
171
2
172
0
173
0
174
0
175
0
176
2
177
2
178
2
  0
DIMSTYLE
  2
DMST_3
 70
0
  3

  4

  5

  6

  7

 40
1
 41
3.2
 42
1
 43
7
 44
1
 45
0
 46
0
 47
0
 48
0.02
140
3.2
141
0
142
0
143
25.4
144
1
145
0
146
0.6
147
0.09
 71
1
 72
0
 73
0
 74
0
 75
0
 76
0
 77
1
 78
9
170
0
171
2
172
0
173
0
174
0
175
0
176
2
177
2
178
2
  0
DIMSTYLE
  2
DMST_4
 70
0
  3

  4

  5

  6

  7

 40
1
 41
3.2
 42
1
 43
7
 44
1
 45
0
 46
0
 47
0.3
 48
0.3
140
3.2
141
0
142
0
143
25.4
144
1
145
0
146
0.6
147
0.09
 71
1
 72
0
 73
0
 74
0
 75
0
 76
0
 77
1
 78
9
170
0
171
2
172
0
173
0
174
0
175
0
176
2
177
2
178
2
  0
DIMSTYLE
  2
DMST_5
 70
0
  3
)
  4

  5

  6

  7

 40
1
 41
3.2
 42
1
 43
7
 44
1
 45
0
 46
0
 47
0
 48
0
140
3.2
141
0
142
0
143
25.4
144
1
145
0
146
1
147
0.09
 71
0
 72
0
 73
0
 74
0
 75
0
 76
0
 77
1
 78
9
170
0
171
2
172
0
173
0
174
0
175
0
176
2
177
2
178
2
  0
DIMSTYLE
  2
DMST_6
 70
0
  3

  4

  5

  6

  7

 40
1
 41
3.2
 42
1
 43
7
 44
1
 45
0
 46
0
 47
0
 48
0
140
3.2
141
0
142
0
143
25.4
144
1
145
0
146
1
147
0.09
 71
0
 72
0
 73
1
 74
1
 75
0
 76
0
 77
1
 78
9
170
0
171
2
172
0
173
0
174
0
175
0
176
2
177
2
178
2
  0
ENDTAB
  0
TABLE
  2
LTYPE
 70
9
  0
LTYPE
  2
CONTINUOUS
 70
64
  3
Solid line
 72
65
 73
0
 40
0
  0
LTYPE
  2
BORDER
 70
64
  3
__ __ . __ __ .
 72
65
 73
6
 40
18.26141526269104
 49
5.217547217911724
 49
-2.608773608955862
 49
5.217547217911724
 49
-2.608773608955862
 49
0
 49
-2.608773608955862
  0
LTYPE
  2
CENTER
 70
64
  3
____ _ ____ _
 72
65
 73
4
 40
20.8701888716469
 49
13.04386804477931
 49
-2.608773608955862
 49
2.608773608955862
 49
-2.608773608955862
  0
LTYPE
  2
DASHDOT
 70
64
  3
__ . __ . __ .
 72
65
 73
4
 40
10.43509443582345
 49
5.217547217911724
 49
-2.608773608955862
 49
0
 49
-2.608773608955862
  0
LTYPE
  2
DASHED
 70
64
  3
__ __ __ __ __
 72
65
 73
2
 40
7.826320826867586
 49
5.217547217911724
 49
-2.608773608955862
  0
LTYPE
  2
DIVIDE
 70
64
  3
__ . . __ . . 
 72
65
 73
6
 40
13.04386804477931
 49
5.217547217911724
 49
-2.608773608955862
 49
0
 49
-2.608773608955862
 49
0
 49
-2.608773608955862
  0
LTYPE
  2
DOT
 70
64
  3
..............
 72
65
 73
4
 40
5.217547217911724
 49
0
 49
-2.608773608955862
 49
0
 49
-2.608773608955862
  0
LTYPE
  2
HIDDEN
 70
64
  3
_ _ _ _ _ _ _
 72
65
 73
2
 40
3.913160413433793
 49
2.608773608955862
 49
-1.304386804477931
  0
LTYPE
  2
PHANTOM
 70
64
  3
_____ _ _ _____ _ _ 
 72
65
 73
6
 40
26.08773608955862
 49
13.04386804477931
 49
-2.608773608955862
 49
2.608773608955862
 49
-2.608773608955862
 49
2.608773608955862
 49
-2.608773608955862
  0
ENDTAB
  0
TABLE
  2
LAYER
 70
3
  0
LAYER
  2
1
 70
0
 62
7
  6
CONTINUOUS
  0
LAYER
  2
0
 70
0
 62
7
  6
CONTINUOUS
  0
ENDTAB
  0
TABLE
  2
STYLE
 70
4
  0
STYLE
  2
STANDARD
 70
0
 40
0
 41
1
 50
0
 71
0
 42
3.5
  3
txt
  4

  0
STYLE
  2
SIMPLEX
 70
0
 40
0
 41
1
 50
0
 71
0
 42
3.5
  3
simplex
  4

  0
STYLE
  2
COMPLEX
 70
0
 40
0
 41
1
 50
0
 71
0
 42
3.5
  3
complex
  4

  0
STYLE
  2
ITALIC
 70
0
 40
0
 41
1
 50
0
 71
0
 42
3.5
  3
italic
  4

  0
ENDTAB
  0
TABLE
  2
VIEW
 70
0
  0
ENDTAB
  0
ENDSEC
  0
SECTION
  2
BLOCKS
  0
BLOCK
  8
1
  2
*D0
 70
1
 10
0
 20
0
 30
0
  0
LINE
  8
1
 62
2
 10
147.3999999999999
 20
75.5
 30
0
 11
153.7999999999999
 21
75.5
 31
0
  0
LINE
  8
1
 62
2
 10
141.0000000000001
 20
75.5
 30
0
 11
134.6000000000001
 21
75.5
 31
0
  0
LINE
  8
1
 62
2
 10
141.0000000000001
 20
75.5
 30
0
 11
147.3999999999999
 21
75.5
 31
0
  0
LINE
  8
1
 62
2
 10
147.3999999999999
 20
25.50000000000001
 30
0
 11
147.3999999999999
 21
76.5
 31
0
  0
LINE
  8
1
 62
2
 10
141.0000000000001
 20
23.00000000000001
 30
0
 11
141.0000000000001
 21
76.5
 31
0
  0
SOLID
  8
1
 62
2
 10
141.0000000000001
 20
75.5
 30
0
 11
137.8000000000001
 21
75.084
 31
0
 12
137.8000000000001
 22
75.916
 32
0
 13
137.8000000000001
 23
75.916
 33
0
  0
SOLID
  8
1
 62
2
 10
147.3999999999999
 20
75.5
 30
0
 11
150.5999999999999
 21
75.916
 31
0
 12
150.5999999999999
 22
75.084
 32
0
 13
150.5999999999999
 23
75.084
 33
0
  0
TEXT
  8
1
 62
2
 10
138.056
 20
76.5
 30
0
 40
3.2
  1
6.4
 41
0.9
  0
TEXT
  8
1
 62
2
 10
145.496
 20
77.14
 30
0
 40
1.92
  1
%%p0.5
 41
0.9
  0
ENDBLK
  8
0
  0
BLOCK
  8
1
  2
*D1
 70
1
 10
0
 20
0
 30
0
  0
LINE
  8
1
 62
2
 10
56.7999999999999
 20
65.5
 30
0
 11
85.80000000000001
 21
65.5
 31
0
  0
LINE
  8
1
 62
2
 10
56.7999999999999
 20
45.5
 30
0
 11
56.7999999999999
 21
66.5
 31
0
  0
LINE
  8
1
 62
2
 10
85.80000000000001
 20
46
 30
0
 11
85.80000000000001
 21
66.5
 31
0
  0
SOLID
  8
1
 62
2
 10
56.7999999999999
 20
65.5
 30
0
 11
59.9999999999999
 21
65.916
 31
0
 12
59.9999999999999
 22
65.084
 32
0
 13
59.9999999999999
 23
65.084
 33
0
  0
SOLID
  8
1
 62
2
 10
85.80000000000001
 20
65.5
 30
0
 11
82.60000000000001
 21
65.084
 31
0
 12
82.60000000000001
 22
65.916
 32
0
 13
82.60000000000001
 23
65.916
 33
0
  0
TEXT
  8
1
 62
2
 10
68.89999999999995
 20
66.5
 30
0
 40
3.2
  1
29
 41
0.9
  0
ENDBLK
  8
0
  0
BLOCK
  8
1
  2
*D2
 70
1
 10
0
 20
0
 30
0
  0
LINE
  8
1
 62
2
 10
31.79999999999989
 20
75.5
 30
0
 11
56.79999999999989
 21
75.5
 31
0
  0
LINE
  8
1
 62
2
 10
31.79999999999989
 20
28.50000000000001
 30
0
 11
31.79999999999989
 21
76.5
 31
0
  0
LINE
  8
1
 62
2
 10
56.79999999999989
 20
45.50000000000001
 30
0
 11
56.79999999999989
 21
76.5
 31
0
  0
SOLID
  8
1
 62
2
 10
31.79999999999989
 20
75.5
 30
0
 11
34.99999999999989
 21
75.916
 31
0
 12
34.99999999999989
 22
75.084
 32
0
 13
34.99999999999989
 23
75.084
 33
0
  0
SOLID
  8
1
 62
2
 10
56.79999999999989
 20
75.5
 30
0
 11
53.59999999999989
 21
75.084
 31
0
 12
53.59999999999989
 22
75.916
 32
0
 13
53.59999999999989
 23
75.916
 33
0
  0
TEXT
  8
1
 62
2
 10
41.89999999999989
 20
76.5
 30
0
 40
3.2
  1
25
 41
0.9
  0
ENDBLK
  8
0
  0
BLOCK
  8
1
  2
*D3
 70
1
 10
0
 20
0
 30
0
  0
LINE
  8
1
 62
2
 10
51.79999999999977
 20
65.5
 30
0
 11
56.79999999999988
 21
65.5
 31
0
  0
LINE
  8
1
 62
2
 10
51.79999999999977
 20
65.5
 30
0
 11
45.39999999999977
 21
65.5
 31
0
  0
LINE
  8
1
 62
2
 10
56.79999999999988
 20
65.5
 30
0
 11
63.19999999999988
 21
65.5
 31
0
  0
LINE
  8
1
 62
2
 10
51.79999999999977
 20
35.00000000000001
 30
0
 11
51.79999999999977
 21
66.5
 31
0
  0
LINE
  8
1
 62
2
 10
56.79999999999988
 20
45.5
 30
0
 11
56.79999999999988
 21
66.5
 31
0
  0
SOLID
  8
1
 62
2
 10
51.79999999999977
 20
65.5
 30
0
 11
48.59999999999977
 21
65.084
 31
0
 12
48.59999999999977
 22
65.916
 32
0
 13
48.59999999999977
 23
65.916
 33
0
  0
SOLID
  8
1
 62
2
 10
56.79999999999988
 20
65.5
 30
0
 11
59.99999999999989
 21
65.916
 31
0
 12
59.99999999999989
 22
65.084
 32
0
 13
59.99999999999989
 23
65.084
 33
0
  0
TEXT
  8
1
 62
2
 10
53.33999999999983
 20
66.5
 30
0
 40
3.2
  1
5
 41
0.9
  0
ENDBLK
  8
0
  0
BLOCK
  8
1
  2
*D4
 70
1
 10
0
 20
0
 30
0
  0
LINE
  8
1
 62
2
 10
1.799999999999891
 20
16.0001839906908
 30
0
 11
1.799999999999891
 21
34
 31
0
  0
LINE
  8
1
 62
2
 10
1.799999999999891
 20
34
 30
0
 11
1.799999999999891
 21
44.8817260421333
 31
0
  0
LINE
  8
1
 62
2
 10
50.79999999999989
 20
16.0001839906908
 30
0
 11
0.7999999999998906
 21
16.0001839906908
 31
0
  0
LINE
  8
1
 62
2
 10
50.79999999999978
 20
34
 30
0
 11
0.7999999999998906
 21
34
 31
0
  0
SOLID
  8
1
 62
2
 10
1.799999999999891
 20
34
 30
0
 11
2.21599999999989
 21
30.8
 31
0
 12
1.38399999999989
 22
30.8
 32
0
 13
1.38399999999989
 23
30.8
 33
0
  0
SOLID
  8
1
 62
2
 10
1.799999999999891
 20
16.0001839906908
 30
0
 11
1.38399999999989
 21
19.2001839906908
 31
0
 12
2.215999999999889
 22
19.2001839906908
 32
0
 13
2.215999999999889
 23
19.2001839906908
 33
0
  0
TEXT
  8
1
 62
2
 10
0.7999999999998906
 20
41.0417260421333
 30
0
 40
3.2
  1
18
 50
90
 41
0.9
  0
TEXT
  8
1
 62
2
 10
0.7999999999998906
 20
37.2017260421333
 30
0
 40
3.2
  1
%%c
 50
90
 41
0.9
  0
ENDBLK
  8
0
  0
BLOCK
  8
1
  2
*D5
 70
1
 10
0
 20
0
 30
0
  0
LINE
  8
1
 62
2
 10
11.79999999999988
 20
15.60000000000023
 30
0
 11
11.79999999999988
 21
22.00000000000023
 31
0
  0
LINE
  8
1
 62
2
 10
11.79999999999988
 20
22.00000000000023
 30
0
 11
11.79999999999988
 21
28.00000000000023
 31
0
  0
LINE
  8
1
 62
2
 10
11.79999999999988
 20
28.00000000000023
 30
0
 11
11.79999999999988
 21
51.064
 31
0
  0
LINE
  8
1
 62
2
 10
30.79999999999989
 20
22.00000000000023
 30
0
 11
10.79999999999988
 21
22.00000000000023
 31
0
  0
LINE
  8
1
 62
2
 10
46.64057287393525
 20
28.00000000000023
 30
0
 11
10.79999999999988
 21
28.00000000000023
 31
0
  0
SOLID
  8
1
 62
2
 10
11.79999999999988
 20
28.00000000000023
 30
0
 11
11.38399999999988
 21
31.20000000000023
 31
0
 12
12.21599999999988
 22
31.20000000000023
 32
0
 13
12.21599999999988
 23
31.20000000000023
 33
0
  0
SOLID
  8
1
 62
2
 10
11.79999999999988
 20
22.00000000000023
 30
0
 11
12.21599999999988
 21
18.80000000000023
 31
0
 12
11.38399999999988
 22
18.80000000000023
 32
0
 13
11.38399999999988
 23
18.80000000000023
 33
0
  0
TEXT
  8
1
 62
2
 10
9.999999999999883
 20
40.776
 30
0
 40
3.2
  1
6
 50
90
 41
0.9
  0
TEXT
  8
1
 62
2
 10
7.919999999999883
 20
44.296
 30
0
 40
1.92
  1
 0
 50
90
 41
0.9
  0
TEXT
  8
1
 62
2
 10
10.79999999999988
 20
44.296
 30
0
 40
1.92
  1
-0.02
 50
90
 41
0.9
  0
TEXT
  8
1
 62
2
 10
9.999999999999883
 20
36.936
 30
0
 40
3.2
  1
%%c
 50
90
 41
0.9
  0
ENDBLK
  8
0
  0
BLOCK
  8
1
  2
*D6
 70
1
 10
0
 20
0
 30
0
  0
LINE
  8
1
 62
2
 10
-145.0000000000001
 20
65.5
 30
0
 11
-83.99999999999997
 21
65.5
 31
0
  0
LINE
  8
1
 62
2
 10
-145.0000000000001
 20
40.75
 30
0
 11
-145.0000000000001
 21
66.5
 31
0
  0
LINE
  8
1
 62
2
 10
-83.99999999999997
 20
40.75
 30
0
 11
-83.99999999999997
 21
66.5
 31
0
  0
SOLID
  8
1
 62
2
 10
-145.0000000000001
 20
65.5
 30
0
 11
-141.8000000000001
 21
65.916
 31
0
 12
-141.8000000000001
 22
65.084
 32
0
 13
-141.8000000000001
 23
65.084
 33
0
  0
SOLID
  8
1
 62
2
 10
-83.99999999999997
 20
65.5
 30
0
 11
-87.19999999999997
 21
65.084
 31
0
 12
-87.19999999999997
 22
65.916
 32
0
 13
-87.19999999999997
 23
65.916
 33
0
  0
TEXT
  8
1
 62
2
 10
-112.0420144650519
 20
66.62877357454421
 30
0
 40
3.2
  1
61
 41
0.9
  0
TEXT
  8
1
 62
2
 10
-116.1831909356401
 20
66.62877357454421
 30
0
 40
3.2
  1
□
 41
0.9
  0
ENDBLK
  8
0
  0
BLOCK
  8
1
  2
*D7
 70
1
 10
0
 20
0
 30
0
  0
LINE
  8
1
 62
2
 10
-73.99999999999997
 20
15
 30
0
 11
-73.99999999999997
 21
25
 31
0
  0
LINE
  8
1
 62
2
 10
-73.99999999999997
 20
15
 30
0
 11
-73.99999999999997
 21
0.4885456926167402
 31
0
  0
LINE
  8
1
 62
2
 10
-79.8944887593822
 20
15
 30
0
 11
-72.99999999999997
 21
15
 31
0
  0
LINE
  8
1
 62
2
 10
-101.9454185024993
 20
25
 30
0
 11
-72.99999999999997
 21
25
 31
0
  0
SOLID
  8
1
 62
2
 10
-73.99999999999997
 20
25
 30
0
 11
-73.58399999999998
 21
21.8
 31
0
 12
-74.41599999999997
 22
21.8
 32
0
 13
-74.41599999999997
 23
21.8
 33
0
  0
SOLID
  8
1
 62
2
 10
-73.99999999999997
 20
15
 30
0
 11
-74.41599999999997
 21
18.2
 31
0
 12
-73.58399999999998
 22
18.2
 32
0
 13
-73.58399999999998
 23
18.2
 33
0
  0
TEXT
  8
1
 62
2
 10
-74.99999999999997
 20
0.4885456926167402
 30
0
 40
3.2
  1
10
 50
90
 41
0.9
  0
TEXT
  8
1
 62
2
 10
-75.63999999999997
 20
5.92854569261674
 30
0
 40
1.92
  1
%%p0.5
 50
90
 41
0.9
  0
ENDBLK
  8
0
  0
BLOCK
  8
1
  2
*D8
 70
1
 10
0
 20
0
 30
0
  0
LINE
  8
1
 62
2
 10
-63.99999999999996
 20
-9.75
 30
0
 11
-63.99999999999996
 21
39.75
 31
0
  0
LINE
  8
1
 62
2
 10
-80.41979331410235
 20
-9.75
 30
0
 11
-62.99999999999996
 21
-9.75
 31
0
  0
LINE
  8
1
 62
2
 10
-81.15571212396216
 20
39.75
 30
0
 11
-62.99999999999996
 21
39.75
 31
0
  0
SOLID
  8
1
 62
2
 10
-63.99999999999996
 20
39.75
 30
0
 11
-63.58399999999997
 21
36.55
 31
0
 12
-64.41599999999997
 22
36.55
 32
0
 13
-64.41599999999997
 23
36.55
 33
0
  0
SOLID
  8
1
 62
2
 10
-63.99999999999996
 20
-9.75
 30
0
 11
-64.41599999999997
 21
-6.549999999999999
 31
0
 12
-63.58399999999997
 22
-6.549999999999999
 32
0
 13
-63.58399999999997
 23
-6.549999999999999
 33
0
  0
TEXT
  8
1
 62
2
 10
-64.99999999999997
 20
7.416
 30
0
 40
3.2
  1
49.5
 50
90
 41
0.9
  0
TEXT
  8
1
 62
2
 10
-65.63999999999997
 20
17.736
 30
0
 40
1.92
  1
%%p0.3
 50
90
 41
0.9
  0
ENDBLK
  8
0
  0
BLOCK
  8
1
  2
*D9
 70
1
 10
0
 20
0
 30
0
  0
LINE
  8
1
 62
2
 10
-139.25
 20
55.5
 30
0
 11
-89.74999999999999
 21
55.5
 31
0
  0
LINE
  8
1
 62
2
 10
-139.25
 20
48.40783652817061
 30
0
 11
-139.25
 21
56.5
 31
0
  0
LINE
  8
1
 62
2
 10
-89.74999999999999
 20
48.77579593310054
 30
0
 11
-89.74999999999999
 21
56.5
 31
0
  0
SOLID
  8
1
 62
2
 10
-139.25
 20
55.5
 30
0
 11
-136.05
 21
55.916
 31
0
 12
-136.05
 22
55.084
 32
0
 13
-136.05
 23
55.084
 33
0
  0
SOLID
  8
1
 62
2
 10
-89.74999999999999
 20
55.5
 30
0
 11
-92.94999999999999
 21
55.084
 31
0
 12
-92.94999999999999
 22
55.916
 32
0
 13
-92.94999999999999
 23
55.916
 33
0
  0
TEXT
  8
1
 62
2
 10
-122.084
 20
56.5
 30
0
 40
3.2
  1
49.5
 41
0.9
  0
TEXT
  8
1
 62
2
 10
-111.764
 20
57.14
 30
0
 40
1.92
  1
%%p0.3
 41
0.9
  0
ENDBLK
  8
0
  0
BLOCK
  8
1
  2
*D10
 70
1
 10
0
 20
0
 30
0
  0
LINE
  8
1
 62
2
 10
21.79999999999988
 20
15.60000000000023
 30
0
 11
21.79999999999988
 21
22.00000000000023
 31
0
  0
LINE
  8
1
 62
2
 10
21.79999999999988
 20
22.00000000000023
 30
0
 11
21.79999999999988
 21
27.5
 31
0
  0
LINE
  8
1
 62
2
 10
21.79999999999988
 20
27.5
 30
0
 11
21.79999999999988
 21
50.14400000000001
 31
0
  0
LINE
  8
1
 62
2
 10
30.79999999999989
 20
22.00000000000023
 30
0
 11
20.79999999999988
 21
22.00000000000023
 31
0
  0
LINE
  8
1
 62
2
 10
30.79999999999989
 20
27.5
 30
0
 11
20.79999999999988
 21
27.5
 31
0
  0
SOLID
  8
1
 62
2
 10
21.79999999999988
 20
27.5
 30
0
 11
21.38399999999988
 21
30.7
 31
0
 12
22.21599999999988
 22
30.7
 32
0
 13
22.21599999999988
 23
30.7
 33
0
  0
SOLID
  8
1
 62
2
 10
21.79999999999988
 20
22.00000000000023
 30
0
 11
22.21599999999988
 21
18.80000000000023
 31
0
 12
21.38399999999988
 22
18.80000000000023
 32
0
 13
21.38399999999988
 23
18.80000000000023
 33
0
  0
TEXT
  8
1
 62
2
 10
20.79999999999988
 20
37.856
 30
0
 40
3.2
  1
5.5
 50
90
 41
0.9
  0
TEXT
  8
1
 62
2
 10
20.15999999999988
 20
45.296
 30
0
 40
1.92
  1
%%p0.3
 50
90
 41
0.9
  0
ENDBLK
  8
0
  0
BLOCK
  8
1
  2
*D11
 70
1
 10
0
 20
0
 30
0
  0
LINE
  8
1
 62
2
 10
31.79999999999988
 20
65.5
 30
0
 11
43.79999999999977
 21
65.5
 31
0
  0
LINE
  8
1
 62
2
 10
31.79999999999988
 20
28.50000000000001
 30
0
 11
31.79999999999988
 21
66.5
 31
0
  0
LINE
  8
1
 62
2
 10
43.79999999999977
 20
28.50000000000001
 30
0
 11
43.79999999999977
 21
66.5
 31
0
  0
SOLID
  8
1
 62
2
 10
31.79999999999988
 20
65.5
 30
0
 11
34.99999999999989
 21
65.916
 31
0
 12
34.99999999999989
 22
65.084
 32
0
 13
34.99999999999989
 23
65.084
 33
0
  0
SOLID
  8
1
 62
2
 10
43.79999999999977
 20
65.5
 30
0
 11
40.59999999999977
 21
65.084
 31
0
 12
40.59999999999977
 22
65.916
 32
0
 13
40.59999999999977
 23
65.916
 33
0
  0
TEXT
  8
1
 62
2
 10
35.87999999999983
 20
66.5
 30
0
 40
3.2
  1
12
 41
0.9
  0
ENDBLK
  8
0
  0
BLOCK
  8
1
  2
*D12
 70
1
 10
0
 20
0
 30
0
  0
LINE
  8
1
 62
2
 10
239.5951756726889
 20
5.724999999999822
 30
0
 11
239.5951756726889
 21
24.27499999999978
 31
0
  0
LINE
  8
1
 62
2
 10
217.6289692464751
 20
5.724999999999822
 30
0
 11
240.5951756726889
 21
5.724999999999822
 31
0
  0
LINE
  8
1
 62
2
 10
217.6289692464751
 20
24.27499999999978
 30
0
 11
240.5951756726889
 21
24.27499999999978
 31
0
  0
SOLID
  8
1
 62
2
 10
239.5951756726889
 20
24.27499999999978
 30
0
 11
240.0111756726889
 21
21.07499999999978
 31
0
 12
239.1791756726889
 22
21.07499999999978
 32
0
 13
239.1791756726889
 23
21.07499999999978
 33
0
  0
SOLID
  8
1
 62
2
 10
239.5951756726889
 20
5.724999999999822
 30
0
 11
239.1791756726889
 21
8.924999999999823
 31
0
 12
240.0111756726889
 22
8.924999999999823
 32
0
 13
240.0111756726889
 23
8.924999999999823
 33
0
  0
TEXT
  8
1
 62
2
 10
238.595175672689
 20
11.1199999999998
 30
0
 40
3.2
  1
18.6
 50
90
 41
0.9
  0
TEXT
  8
1
 62
2
 10
238.595175672689
 20
9.0399999999998
 30
0
 40
3.2
  1
(
 50
90
 41
0.9
  0
TEXT
  8
1
 62
2
 10
238.595175672689
 20
20.4799999999998
 30
0
 40
3.2
  1
)
 50
90
 41
0.9
  0
ENDBLK
  8
0
  0
BLOCK
  8
1
  2
*D13
 70
1
 10
0
 20
0
 30
0
  0
LINE
  8
1
 62
2
 10
157.3999999999998
 20
6.999999999999972
 30
0
 11
157.3999999999998
 21
23.00000000000006
 31
0
  0
LINE
  8
1
 62
2
 10
140.9999999999999
 20
6.999999999999972
 30
0
 11
158.3999999999998
 21
6.999999999999972
 31
0
  0
LINE
  8
1
 62
2
 10
140.9999999999999
 20
23.00000000000006
 30
0
 11
158.3999999999998
 21
23.00000000000006
 31
0
  0
SOLID
  8
1
 62
2
 10
157.3999999999998
 20
23.00000000000006
 30
0
 11
157.8159999999998
 21
19.80000000000006
 31
0
 12
156.9839999999998
 22
19.80000000000006
 32
0
 13
156.9839999999998
 23
19.80000000000006
 33
0
  0
SOLID
  8
1
 62
2
 10
157.3999999999998
 20
6.999999999999972
 30
0
 11
156.9839999999998
 21
10.19999999999997
 31
0
 12
157.8159999999998
 22
10.19999999999997
 32
0
 13
157.8159999999998
 23
10.19999999999997
 33
0
  0
TEXT
  8
1
 62
2
 10
155.5466666666665
 20
15.10352941176471
 30
0
 40
3.2
  1
16
 50
90
 41
0.9
  0
TEXT
  8
1
 62
2
 10
155.5466666666665
 20
11.05647058823529
 30
0
 40
3.2
  1
φ
 50
90
 41
0.9
  0
ENDBLK
  8
0
  0
BLOCK
  8
1
  2
*D14
 70
1
 10
0
 20
0
 30
0
  0
LINE
  8
1
 62
2
 10
201.8499999999993
 20
43.90760699128541
 30
0
 11
208.2499999999994
 21
43.90760699128541
 31
0
  0
LINE
  8
1
 62
2
 10
208.2499999999994
 20
43.90760699128541
 30
0
 11
213.7499999999994
 21
43.90760699128541
 31
0
  0
LINE
  8
1
 62
2
 10
213.7499999999994
 20
43.90760699128541
 30
0
 11
229.1101682502302
 21
43.90760699128541
 31
0
  0
LINE
  8
1
 62
2
 10
208.2499999999994
 20
70.69385810855869
 30
0
 11
208.2499999999994
 21
42.90760699128541
 31
0
  0
LINE
  8
1
 62
2
 10
213.7499999999994
 20
70.64385810855873
 30
0
 11
213.7499999999994
 21
42.90760699128541
 31
0
  0
SOLID
  8
1
 62
2
 10
208.2499999999994
 20
43.90760699128541
 30
0
 11
205.0499999999994
 21
43.49160699128541
 31
0
 12
205.0499999999994
 22
44.3236069912854
 32
0
 13
205.0499999999994
 23
44.3236069912854
 33
0
  0
SOLID
  8
1
 62
2
 10
213.7499999999994
 20
43.90760699128541
 30
0
 11
216.9499999999994
 21
44.3236069912854
 31
0
 12
216.9499999999994
 22
43.49160699128541
 32
0
 13
216.9499999999994
 23
43.49160699128541
 33
0
  0
TEXT
  8
1
 62
2
 10
217.8301682502301
 20
44.9076069912854
 30
0
 40
3.2
  1
2-5.5
 41
0.9
  0
ENDBLK
  8
0
  0
BLOCK
  8
1
  2
*D15
 70
1
 10
0
 20
0
 30
0
  0
LINE
  8
1
 62
2
 10
202.2249999999993
 20
52.85554879312742
 30
0
 11
208.6249999999994
 21
52.85554879312742
 31
0
  0
LINE
  8
1
 62
2
 10
208.6249999999994
 20
52.85554879312742
 30
0
 11
213.3749999999994
 21
52.85554879312742
 31
0
  0
LINE
  8
1
 62
2
 10
213.3749999999994
 20
52.85554879312742
 30
0
 11
245.1506809201102
 21
52.85554879312742
 31
0
  0
LINE
  8
1
 62
2
 10
208.6249999999994
 20
65.2938581085586
 30
0
 11
208.6249999999994
 21
51.85554879312742
 31
0
  0
LINE
  8
1
 62
2
 10
213.3749999999994
 20
65.2938581085586
 30
0
 11
213.3749999999994
 21
51.85554879312742
 31
0
  0
SOLID
  8
1
 62
2
 10
208.6249999999994
 20
52.85554879312742
 30
0
 11
205.4249999999994
 21
52.43954879312742
 31
0
 12
205.4249999999994
 22
53.27154879312742
 32
0
 13
205.4249999999994
 23
53.27154879312742
 33
0
  0
SOLID
  8
1
 62
2
 10
213.3749999999994
 20
52.85554879312742
 30
0
 11
216.5749999999994
 21
53.27154879312742
 31
0
 12
216.5749999999994
 22
52.43954879312742
 32
0
 13
216.5749999999994
 23
52.43954879312742
 33
0
  0
TEXT
  8
1
 62
2
 10
217.7906809201101
 20
53.85554879312741
 30
0
 40
3.2
  1
2-4.75XT.05
 41
0.9
  0
ENDBLK
  8
0
  0
BLOCK
  8
1
  2
*D16
 70
1
 10
0
 20
0
 30
0
  0
LINE
  8
1
 62
2
 10
239.5999999999995
 20
58.89385810855856
 30
0
 11
239.5999999999995
 21
65.29385810855857
 31
0
  0
LINE
  8
1
 62
2
 10
239.5999999999995
 20
65.29385810855857
 30
0
 11
239.5999999999995
 21
71.69385810855866
 31
0
  0
LINE
  8
1
 62
2
 10
239.5999999999995
 20
71.69385810855866
 30
0
 11
239.5999999999995
 21
86.02216641697839
 31
0
  0
LINE
  8
1
 62
2
 10
213.3749999999994
 20
65.29385810855857
 30
0
 11
240.5999999999995
 21
65.29385810855857
 31
0
  0
LINE
  8
1
 62
2
 10
218.9999999999994
 20
71.69385810855866
 30
0
 11
240.5999999999995
 21
71.69385810855866
 31
0
  0
SOLID
  8
1
 62
2
 10
239.5999999999995
 20
71.69385810855866
 30
0
 11
239.1839999999995
 21
74.89385810855866
 31
0
 12
240.0159999999995
 22
74.89385810855866
 32
0
 13
240.0159999999995
 23
74.89385810855866
 33
0
  0
SOLID
  8
1
 62
2
 10
239.5999999999995
 20
65.29385810855857
 30
0
 11
240.0159999999995
 21
62.09385810855856
 31
0
 12
239.1839999999995
 22
62.09385810855856
 32
0
 13
239.1839999999995
 23
62.09385810855856
 33
0
  0
TEXT
  8
1
 62
2
 10
238.4394460012201
 20
73.73416641697838
 30
0
 40
3.2
  1
6.4
 50
90
 41
0.9
  0
TEXT
  8
1
 62
2
 10
237.7994460012201
 20
81.1741664169784
 30
0
 40
1.92
  1
%%p0.5
 50
90
 41
0.9
  0
ENDBLK
  8
0
  0
BLOCK
  8
1
  2
*D17
 70
1
 10
0
 20
0
 30
0
  0
LINE
  8
1
 62
2
 10
172.3999999999994
 20
58.89385810855856
 30
0
 11
172.3999999999994
 21
65.29385810855857
 31
0
  0
LINE
  8
1
 62
2
 10
172.3999999999994
 20
65.29385810855857
 30
0
 11
172.3999999999994
 21
71.6438581085587
 31
0
  0
LINE
  8
1
 62
2
 10
172.3999999999994
 20
71.6438581085587
 30
0
 11
172.3999999999994
 21
89.37937419865241
 31
0
  0
LINE
  8
1
 62
2
 10
208.6249999999994
 20
65.29385810855857
 30
0
 11
171.3999999999994
 21
65.29385810855857
 31
0
  0
LINE
  8
1
 62
2
 10
207.2499999999994
 20
71.6438581085587
 30
0
 11
171.3999999999994
 21
71.6438581085587
 31
0
  0
SOLID
  8
1
 62
2
 10
172.3999999999994
 20
71.6438581085587
 30
0
 11
171.9839999999994
 21
74.84385810855871
 31
0
 12
172.8159999999994
 22
74.84385810855871
 32
0
 13
172.8159999999994
 23
74.84385810855871
 33
0
  0
SOLID
  8
1
 62
2
 10
172.3999999999994
 20
65.29385810855857
 30
0
 11
172.8159999999994
 21
62.09385810855856
 31
0
 12
171.9839999999994
 22
62.09385810855856
 32
0
 13
171.9839999999994
 23
62.09385810855856
 33
0
  0
TEXT
  8
1
 62
2
 10
171.3825174391801
 20
75.2193741986524
 30
0
 40
3.2
  1
2-6.35
 50
90
 41
0.9
  0
ENDBLK
  8
0
  0
BLOCK
  8
1
  2
*D18
 70
1
 10
0
 20
0
 30
0
  0
LINE
  8
1
 62
2
 10
182.3999999999995
 20
58.89385810855856
 30
0
 11
182.3999999999995
 21
65.29385810855857
 31
0
  0
LINE
  8
1
 62
2
 10
182.3999999999995
 20
65.29385810855857
 30
0
 11
182.3999999999995
 21
68.49385810855861
 31
0
  0
LINE
  8
1
 62
2
 10
182.3999999999995
 20
68.49385810855861
 30
0
 11
182.3999999999995
 21
86.57086545248839
 31
0
  0
LINE
  8
1
 62
2
 10
208.6249999999994
 20
65.29385810855857
 30
0
 11
181.3999999999995
 21
65.29385810855857
 31
0
  0
LINE
  8
1
 62
2
 10
209.1549999999996
 20
68.49385810855861
 30
0
 11
181.3999999999995
 21
68.49385810855861
 31
0
  0
SOLID
  8
1
 62
2
 10
182.3999999999995
 20
65.29385810855857
 30
0
 11
182.8159999999995
 21
62.09385810855856
 31
0
 12
181.9839999999995
 22
62.09385810855856
 32
0
 13
181.9839999999995
 23
62.09385810855856
 33
0
  0
SOLID
  8
1
 62
2
 10
182.3999999999995
 20
68.49385810855861
 30
0
 11
181.9839999999995
 21
71.69385810855862
 31
0
 12
182.8159999999995
 22
71.69385810855862
 32
0
 13
182.8159999999995
 23
71.69385810855862
 33
0
  0
TEXT
  8
1
 62
2
 10
181.3831582765301
 20
75.2908654524884
 30
0
 40
3.2
  1
2-3.2
 50
90
 41
0.9
  0
ENDBLK
  8
0
  0
BLOCK
  8
1
  2
*D19
 70
1
 10
0
 20
0
 30
0
  0
LINE
  8
1
 62
2
 10
167.5999999999997
 20
-3.600000000000129
 30
0
 11
167.5999999999997
 21
33.59999999999991
 31
0
  0
LINE
  8
1
 62
2
 10
130.8000000000002
 20
-3.600000000000129
 30
0
 11
168.5999999999997
 21
-3.600000000000129
 31
0
  0
LINE
  8
1
 62
2
 10
130.8000000000002
 20
33.59999999999991
 30
0
 11
168.5999999999997
 21
33.59999999999991
 31
0
  0
SOLID
  8
1
 62
2
 10
167.5999999999997
 20
33.59999999999991
 30
0
 11
168.0159999999997
 21
30.39999999999991
 31
0
 12
167.1839999999997
 22
30.39999999999991
 32
0
 13
167.1839999999997
 23
30.39999999999991
 33
0
  0
SOLID
  8
1
 62
2
 10
167.5999999999997
 20
-3.600000000000129
 30
0
 11
167.1839999999997
 21
-0.4000000000001287
 31
0
 12
168.0159999999997
 22
-0.4000000000001287
 32
0
 13
168.0159999999997
 23
-0.4000000000001287
 33
0
  0
TEXT
  8
1
 62
2
 10
165.7466666666664
 20
12.66352941176459
 30
0
 40
3.2
  1
37.2
 50
90
 41
0.9
  0
TEXT
  8
1
 62
2
 10
165.7466666666664
 20
8.616470588235185
 30
0
 40
3.2
  1
φ
 50
90
 41
0.9
  0
ENDBLK
  8
0
  0
BLOCK
  8
1
  2
*D20
 70
1
 10
0
 20
0
 30
0
  0
LINE
  8
1
 62
2
 10
147.4000000000002
 20
65.5
 30
0
 11
141.0000000000001
 21
65.5
 31
0
  0
LINE
  8
1
 62
2
 10
137.0000000000001
 20
65.5
 30
0
 11
141.0000000000001
 21
65.5
 31
0
  0
LINE
  8
1
 62
2
 10
137.0000000000001
 20
65.5
 30
0
 11
129.57260531607
 21
65.5
 31
0
  0
LINE
  8
1
 62
2
 10
137.0000000000001
 20
29.50000000000001
 30
0
 11
137.0000000000001
 21
66.5
 31
0
  0
LINE
  8
1
 62
2
 10
141.0000000000001
 20
23.00000000000001
 30
0
 11
141.0000000000001
 21
66.5
 31
0
  0
SOLID
  8
1
 62
2
 10
137.0000000000001
 20
65.5
 30
0
 11
133.8000000000001
 21
65.084
 31
0
 12
133.8000000000001
 22
65.916
 32
0
 13
133.8000000000001
 23
65.916
 33
0
  0
SOLID
  8
1
 62
2
 10
141.0000000000001
 20
65.5
 30
0
 11
144.2000000000001
 21
65.916
 31
0
 12
144.2000000000001
 22
65.084
 32
0
 13
144.2000000000001
 23
65.084
 33
0
  0
TEXT
  8
1
 62
2
 10
131.65260531607
 20
66.5
 30
0
 40
3.2
  1
4
 41
0.9
  0
TEXT
  8
1
 62
2
 10
129.57260531607
 20
66.5
 30
0
 40
3.2
  1
(
 41
0.9
  0
TEXT
  8
1
 62
2
 10
135.17260531607
 20
66.5
 30
0
 40
3.2
  1
)
 41
0.9
  0
ENDBLK
  8
0
  0
BLOCK
  8
1
  2
*D21
 70
1
 10
0
 20
0
 30
0
  0
LINE
  8
1
 62
2
 10
56.79999999999989
 20
75.5
 30
0
 11
141.0000000000001
 21
75.5
 31
0
  0
LINE
  8
1
 62
2
 10
56.79999999999989
 20
45.50000000000001
 30
0
 11
56.79999999999989
 21
76.5
 31
0
  0
LINE
  8
1
 62
2
 10
141.0000000000001
 20
23.00000000000001
 30
0
 11
141.0000000000001
 21
76.5
 31
0
  0
SOLID
  8
1
 62
2
 10
56.79999999999989
 20
75.5
 30
0
 11
59.99999999999989
 21
75.916
 31
0
 12
59.99999999999989
 22
75.084
 32
0
 13
59.99999999999989
 23
75.084
 33
0
  0
SOLID
  8
1
 62
2
 10
141.0000000000001
 20
75.5
 30
0
 11
137.8000000000001
 21
75.084
 31
0
 12
137.8000000000001
 22
75.916
 32
0
 13
137.8000000000001
 23
75.916
 33
0
  0
TEXT
  8
1
 62
2
 10
94.53999999999998
 20
76.5
 30
0
 40
3.2
  1
84.2
 41
0.9
  0
ENDBLK
  8
0
  0
BLOCK
  8
1
  2
*D22
 70
1
 10
0
 20
0
 30
0
  0
LINE
  8
1
 62
2
 10
-88.37721019468756
 20
-11.20445802635563
 30
0
 11
-70.17557948719498
 21
-30.48891641381363
 31
0
  0
LINE
  8
1
 62
2
 10
-70.17557948719498
 20
-30.48891641381363
 30
0
 11
-39.48663898862623
 21
-30.48891641381363
 31
0
  0
SOLID
  8
1
 62
2
 10
-88.37721019468756
 20
-11.20445802635563
 30
0
 11
-85.87821923670573
 21
-13.24605058901966
 31
0
 12
-86.48327377566969
 22
-13.81713114802962
 32
0
 13
-86.48327377566969
 23
-13.81713114802962
 33
0
  0
TEXT
  8
1
 62
2
 10
-59.98546251803798
 20
-29.87893954920613
 30
0
 40
3.2
  1
4
 41
0.9
  0
TEXT
  8
1
 62
2
 10
-69.26546251803798
 20
-29.87893954920613
 30
0
 40
3.2
  1
4-M
 41
0.9
  0
TEXT
  8
1
 62
2
 10
-56.46546251803799
 20
-29.87893954920613
 30
0
 40
3.2
  1
有効深さ6
 41
0.9
  0
ENDBLK
  8
0
  0
BLOCK
  8
1
  2
*D23
 70
1
 10
0
 20
0
 30
0
  0
LINE
  8
1
 62
2
 10
210.6268607651255
 20
67.96162966944831
 30
0
 11
197.8066101648399
 21
49.67542085439291
 31
0
  0
LINE
  8
1
 62
2
 10
197.8066101648399
 20
49.67542085439291
 30
0
 11
173.1415696094601
 21
49.67542085439291
 31
0
  0
SOLID
  8
1
 62
2
 10
210.6268607651255
 20
67.96162966944831
 30
0
 11
209.1304938098542
 21
65.10261901273992
 31
0
 12
208.449241407793
 22
65.58023723337841
 32
0
 13
208.449241407793
 23
65.58023723337841
 33
0
  0
TEXT
  8
1
 62
2
 10
182.42156960946
 20
50.6091078474499
 30
0
 40
3.2
  1
1.3
 41
0.9
  0
TEXT
  8
1
 62
2
 10
173.14156960946
 20
50.6091078474499
 30
0
 40
3.2
  1
2-%%c
 41
0.9
  0
ENDBLK
  8
0
  0
ENDSEC
  0
SECTION
  2
ENTITIES
  0
LINE
  8
1
 62
7
 10
-83.99999999999997
 20
-9.75
 30
0
 11
-83.99999999999997
 21
39.75
 31
0
  0
LINE
  8
1
 62
3
 10
-82.15571212396216
 20
39.75
 30
0
 11
-97.05806802362147
 21
39.75
 31
0
  0
LINE
  8
1
 62
3
 10
-147.4685064990123
 20
39.75
 30
0
 11
-132.1981911944232
 21
39.75
 31
0
  0
LINE
  8
1
 62
3
 10
-132.0142114919582
 20
-9.75
 30
0
 11
-147.6524862014774
 21
-9.75
 31
0
  0
LINE
  8
1
 62
3
 10
-81.41979331410235
 20
-9.75
 30
0
 11
-97.05806802362147
 21
-9.75
 31
0
  0
LINE
  8
1
 62
3
 10
-139.25
 20
32.68946033097609
 30
0
 11
-139.25
 21
47.40783652817061
 31
0
  0
LINE
  8
1
 62
3
 10
-89.74999999999997
 20
-17.72097814441469
 30
0
 11
-89.74999999999997
 21
-2.450662839825497
 31
0
  0
LINE
  8
1
 62
7
 10
-89.74999999999997
 20
45.5
 30
0
 11
-139.25
 21
45.5
 31
0
  0
LINE
  8
1
 62
7
 10
-139.25
 20
-15.5
 30
0
 11
-89.74999999999997
 21
-15.5
 31
0
  0
LINE
  8
1
 62
3
 10
-118.4580657785316
 20
-8.5
 30
0
 11
-110.6646034221225
 21
-8.5
 31
0
  0
LINE
  8
1
 62
3
 10
-114.5000000000001
 20
49.2136930292794
 30
0
 11
-114.5000000000001
 21
-19.40594546015418
 31
0
  0
LINE
  8
1
 62
3
 10
-98.14050209871297
 20
27.5
 30
0
 11
-90.22328331596938
 21
27.5
 31
0
  0
LINE
  8
1
 62
3
 10
-93.99999999999997
 20
31.37902647817771
 30
0
 11
-93.99999999999997
 21
23.83156791330981
 31
0
  0
LINE
  8
1
 62
3
 10
-138.6739005991351
 20
27.5
 30
0
 11
-131.4072225205681
 21
27.5
 31
0
  0
LINE
  8
1
 62
3
 10
-135
 20
31.09626866450839
 30
0
 11
-135
 21
24.06027877891182
 31
0
  0
LINE
  8
1
 62
7
 10
-116.1583123951778
 20
27.5
 30
0
 11
-112.8416876048224
 21
27.5
 31
0
  0
LINE
  8
1
 62
3
 10
-139.25
 20
-3.002601947220171
 30
0
 11
-139.25
 21
-17.72097814441469
 31
0
  0
LINE
  8
1
 62
3
 10
-89.74999999999997
 20
47.77579593310054
 30
0
 11
-89.74999999999997
 21
33.05741973590614
 31
0
  0
LINE
  8
1
 62
3
 10
-102.9454185024993
 20
25
 30
0
 11
-126.3108407155455
 21
25
 31
0
  0
LINE
  8
1
 62
3
 10
-149.159808977786
 20
15
 30
0
 11
-80.8944887593822
 21
15
 31
0
  0
LINE
  8
1
 62
7
 10
-145.0000000000001
 20
39.75
 30
0
 11
-145
 21
-9.75
 31
0
  0
LINE
  8
1
 62
7
 10
-133.9941176470588
 20
27.80000000000001
 30
0
 11
-133.6
 21
27.80000000000001
 31
0
  0
LINE
  8
1
 62
7
 10
-133.9941176470588
 20
27.19999999999999
 30
0
 11
-133.6
 21
27.19999999999999
 31
0
  0
LINE
  8
1
 62
7
 10
-134
 20
27.80000000000001
 30
0
 11
-133.9941176470588
 21
27.80000000000001
 31
0
  0
LINE
  8
1
 62
7
 10
-134
 20
27.19999999999999
 30
0
 11
-133.9941176470588
 21
27.19999999999999
 31
0
  0
LINE
  8
1
 62
7
 10
-134.7
 20
26.5
 30
0
 11
-134.7
 21
26.10000000000002
 31
0
  0
LINE
  8
1
 62
7
 10
-135.2
 20
29
 30
0
 11
-134.8
 21
29
 31
0
  0
LINE
  8
1
 62
7
 10
-135.2
 20
26
 30
0
 11
-134.8
 21
26
 31
0
  0
LINE
  8
1
 62
7
 10
-133.5
 20
27.69999999999999
 30
0
 11
-133.5
 21
27.30000000000001
 31
0
  0
LINE
  8
1
 62
7
 10
-136.5
 20
27.69999999999999
 30
0
 11
-136.5
 21
27.30000000000001
 31
0
  0
LINE
  8
1
 62
7
 10
-136.4
 20
27.80000000000001
 30
0
 11
-136
 21
27.80000000000001
 31
0
  0
LINE
  8
1
 62
7
 10
-136.4
 20
27.19999999999999
 30
0
 11
-136
 21
27.19999999999999
 31
0
  0
LINE
  8
1
 62
7
 10
-135.3
 20
26.10000000000002
 30
0
 11
-135.3
 21
26.5
 31
0
  0
LINE
  8
1
 62
7
 10
-135.3
 20
28.90000000000003
 30
0
 11
-135.3
 21
28.5
 31
0
  0
LINE
  8
1
 62
7
 10
-134.7
 20
28.90000000000003
 30
0
 11
-134.7
 21
28.5
 31
0
  0
LINE
  8
1
 62
7
 10
-92.99411764705874
 20
27.80000000000001
 30
0
 11
-92.59999999999994
 21
27.80000000000001
 31
0
  0
LINE
  8
1
 62
7
 10
-92.99411764705874
 20
27.19999999999999
 30
0
 11
-92.59999999999994
 21
27.19999999999999
 31
0
  0
LINE
  8
1
 62
7
 10
-92.99999999999997
 20
27.80000000000001
 30
0
 11
-92.99411764705874
 21
27.80000000000001
 31
0
  0
LINE
  8
1
 62
7
 10
-92.99999999999997
 20
27.19999999999999
 30
0
 11
-92.99411764705874
 21
27.19999999999999
 31
0
  0
LINE
  8
1
 62
7
 10
-93.69999999999996
 20
26.5
 30
0
 11
-93.69999999999996
 21
26.10000000000002
 31
0
  0
LINE
  8
1
 62
7
 10
-94.19999999999996
 20
29
 30
0
 11
-93.79999999999998
 21
29
 31
0
  0
LINE
  8
1
 62
7
 10
-94.19999999999996
 20
26
 30
0
 11
-93.79999999999998
 21
26
 31
0
  0
LINE
  8
1
 62
7
 10
-92.49999999999997
 20
27.69999999999999
 30
0
 11
-92.49999999999997
 21
27.30000000000001
 31
0
  0
LINE
  8
1
 62
7
 10
-95.49999999999997
 20
27.69999999999999
 30
0
 11
-95.49999999999997
 21
27.30000000000001
 31
0
  0
LINE
  8
1
 62
7
 10
-95.39999999999995
 20
27.80000000000001
 30
0
 11
-94.99999999999997
 21
27.80000000000001
 31
0
  0
LINE
  8
1
 62
7
 10
-95.39999999999995
 20
27.19999999999999
 30
0
 11
-94.99999999999997
 21
27.19999999999999
 31
0
  0
LINE
  8
1
 62
7
 10
-94.29999999999998
 20
26.10000000000002
 30
0
 11
-94.29999999999998
 21
26.5
 31
0
  0
LINE
  8
1
 62
7
 10
-94.29999999999998
 20
28.90000000000003
 30
0
 11
-94.29999999999998
 21
28.5
 31
0
  0
LINE
  8
1
 62
7
 10
-93.69999999999996
 20
28.90000000000003
 30
0
 11
-93.69999999999996
 21
28.5
 31
0
  0
LINE
  8
1
 62
7
 10
-113.494117647059
 20
-8.199999999999989
 30
0
 11
-113.1000000000001
 21
-8.199999999999989
 31
0
  0
LINE
  8
1
 62
7
 10
-113.494117647059
 20
-8.800000000000011
 30
0
 11
-113.1000000000001
 21
-8.800000000000011
 31
0
  0
LINE
  8
1
 62
7
 10
-113.5000000000001
 20
-8.199999999999989
 30
0
 11
-113.494117647059
 21
-8.199999999999989
 31
0
  0
LINE
  8
1
 62
7
 10
-113.5000000000001
 20
-8.800000000000011
 30
0
 11
-113.494117647059
 21
-8.800000000000011
 31
0
  0
LINE
  8
1
 62
7
 10
-114.2000000000001
 20
-9.5
 30
0
 11
-114.2000000000001
 21
-9.899999999999977
 31
0
  0
LINE
  8
1
 62
7
 10
-114.7000000000001
 20
-7
 30
0
 11
-114.3000000000001
 21
-7
 31
0
  0
LINE
  8
1
 62
7
 10
-114.7000000000001
 20
-10
 30
0
 11
-114.3000000000001
 21
-10
 31
0
  0
LINE
  8
1
 62
7
 10
-113.0000000000001
 20
-8.300000000000011
 30
0
 11
-113.0000000000001
 21
-8.699999999999989
 31
0
  0
LINE
  8
1
 62
7
 10
-116.0000000000001
 20
-8.300000000000011
 30
0
 11
-116.0000000000001
 21
-8.699999999999989
 31
0
  0
LINE
  8
1
 62
7
 10
-115.9000000000001
 20
-8.199999999999989
 30
0
 11
-115.5000000000001
 21
-8.199999999999989
 31
0
  0
LINE
  8
1
 62
7
 10
-115.9000000000001
 20
-8.800000000000011
 30
0
 11
-115.5000000000001
 21
-8.800000000000011
 31
0
  0
LINE
  8
1
 62
7
 10
-114.8000000000001
 20
-9.899999999999977
 30
0
 11
-114.8000000000001
 21
-9.5
 31
0
  0
LINE
  8
1
 62
7
 10
-114.8000000000001
 20
-7.099999999999966
 30
0
 11
-114.8000000000001
 21
-7.5
 31
0
  0
LINE
  8
1
 62
7
 10
-114.2000000000001
 20
-7.099999999999966
 30
0
 11
-114.2000000000001
 21
-7.5
 31
0
  0
LINE
  8
1
 62
3
 10
60.88282950123624
 20
25
 30
0
 11
28.47271886644108
 21
25
 31
0
  0
LINE
  8
1
 62
7
 10
31.79999999999989
 20
27.5
 30
0
 11
31.79999999999989
 21
22.00000000000023
 31
0
  0
LINE
  8
1
 62
7
 10
31.79999999999989
 20
22.00000000000023
 30
0
 11
51.79999999999978
 21
22
 31
0
  0
LINE
  8
1
 62
7
 10
43.79999999999978
 20
27.5
 30
0
 11
31.79999999999989
 21
27.5
 31
0
  0
LINE
  8
1
 62
7
 10
87.13360848093682
 20
-6.295966478992248
 30
0
 11
85.90871557427478
 21
-6.250380530190839
 31
0
  0
LINE
  8
1
 62
7
 10
87.13360848093682
 20
-13.20403352100778
 30
0
 11
85.90871557427478
 21
-13.24961946980919
 31
0
  0
LINE
  8
1
 62
7
 10
85.80000000000001
 20
-13.15000000000001
 30
0
 11
85.80000000000001
 21
-6.350000000000009
 31
0
  0
LINE
  8
1
 62
7
 10
87.13360848093682
 20
43.20403352100774
 30
0
 11
85.90871557427478
 21
43.24961946980915
 31
0
  0
LINE
  8
1
 62
7
 10
87.13360848093682
 20
36.29596647899221
 30
0
 11
85.90871557427478
 21
36.2503805301908
 31
0
  0
LINE
  8
1
 62
7
 10
85.80000000000001
 20
36.34999999999999
 30
0
 11
85.80000000000001
 21
43.14999999999998
 31
0
  0
LINE
  8
1
 62
7
 10
83.80000000000001
 20
45.5
 30
0
 11
83.80000000000001
 21
-15.5
 31
0
  0
LINE
  8
1
 62
7
 10
83.80000000000001
 20
-15.5
 30
0
 11
57.79999999999978
 21
-15.5
 31
0
  0
LINE
  8
1
 62
7
 10
83.80000000000001
 20
45.5
 30
0
 11
57.79999999999989
 21
45.5
 31
0
  0
LINE
  8
1
 62
7
 10
47.64057287393524
 20
28.00000000000023
 30
0
 11
51.79999999999978
 21
28.0000000000004
 31
0
  0
LINE
  8
1
 62
7
 10
56.79999999999978
 20
-14.5
 30
0
 11
56.79999999999978
 21
-4.999999999999999
 31
0
  0
LINE
  8
1
 62
7
 10
51.79999999999978
 20
28.0000000000004
 30
0
 11
51.79999999999978
 21
22
 31
0
  0
LINE
  8
1
 62
7
 10
51.79999999999978
 20
22
 30
0
 11
51.79999999999989
 21
16.0001839906908
 31
0
  0
LINE
  8
1
 62
7
 10
51.79999999999978
 20
22
 30
0
 11
51.79999999999978
 21
28.0000000000004
 31
0
  0
LINE
  8
1
 62
7
 10
57.79999999999978
 20
34.00000000000023
 30
0
 11
57.79999999999978
 21
35
 31
0
  0
LINE
  8
1
 62
7
 10
57.79999999999978
 20
16.00018399069091
 30
0
 11
57.79999999999978
 21
34.00000000000023
 31
0
  0
LINE
  8
1
 62
7
 10
57.79999999999978
 20
16.00018399069091
 30
0
 11
57.79999999999978
 21
34.00000000000023
 31
0
  0
LINE
  8
1
 62
7
 10
57.79999999999978
 20
34.00000000000023
 30
0
 11
57.79999999999978
 21
35
 31
0
  0
LINE
  8
1
 62
7
 10
57.79999999999978
 20
-5
 30
0
 11
57.79999999999978
 21
-4
 31
0
  0
LINE
  8
1
 62
7
 10
57.79999999999978
 20
-4
 30
0
 11
57.79999999999978
 21
16.00018399069091
 31
0
  0
LINE
  8
1
 62
7
 10
56.79999999999978
 20
35
 30
0
 11
56.79999999999989
 21
44.5
 31
0
  0
LINE
  8
1
 62
7
 10
51.79999999999978
 20
34
 30
0
 11
51.79999999999978
 21
28.0000000000004
 31
0
  0
LINE
  8
1
 62
7
 10
57.79999999999978
 20
34.00000000000023
 30
0
 11
51.79999999999978
 21
34
 31
0
  0
LINE
  8
1
 62
7
 10
51.79999999999989
 20
16.0001839906908
 30
0
 11
57.79999999999978
 21
16.00018399069091
 31
0
  0
LINE
  8
1
 62
7
 10
63.1773104231623
 20
46.3629393324681
 30
0
 11
76.3067216944772
 21
46.3629393324681
 31
0
  0
LINE
  8
0
 62
3
 10
90.80000000000001
 20
39.75
 30
0
 11
52.68337355630597
 21
39.74999999999989
 31
0
  0
LINE
  8
0
 62
3
 10
53.33217701381903
 20
-9.75
 30
0
 11
90.80000000000001
 21
-9.75
 31
0
  0
LINE
  8
1
 62
7
 10
87.30000000000001
 20
34
 30
0
 11
87.30000000000001
 21
-4
 31
0
  0
LINE
  8
1
 62
3
 10
54.16059082287948
 20
15
 30
0
 11
145.0000000000001
 21
15
 31
0
  0
LINE
  8
1
 62
7
 10
83.80000000000001
 20
38
 30
0
 11
83.80000000000001
 21
5.35654923692141
 31
0
  0
LINE
  8
0
 62
7
 10
85.80000000000001
 20
-15
 30
0
 11
83.80000000000001
 21
-15
 31
0
  0
LINE
  8
0
 62
7
 10
83.80000000000001
 20
45
 30
0
 11
85.80000000000001
 21
45
 31
0
  0
LINE
  8
0
 62
7
 10
83.80000000000001
 20
45
 30
0
 11
83.80000000000001
 21
38
 31
0
  0
LINE
  8
0
 62
7
 10
83.80000000000001
 20
-12
 30
0
 11
83.80000000000001
 21
10
 31
0
  0
LINE
  8
1
 62
7
 10
83.80000000000001
 20
-12
 30
0
 11
83.80000000000001
 21
-15
 31
0
  0
LINE
  8
1
 62
7
 10
85.80000000000001
 20
45
 30
0
 11
85.80000000000001
 21
34.5
 31
0
  0
LINE
  8
1
 62
7
 10
85.80000000000001
 20
-4.5
 30
0
 11
85.80000000000001
 21
-15
 31
0
  0
LINE
  8
1
 62
7
 10
86.30000000000001
 20
-4
 30
0
 11
86.80000000000001
 21
-4
 31
0
  0
LINE
  8
1
 62
7
 10
87.30000000000001
 20
-3.5
 30
0
 11
87.30000000000001
 21
33.5
 31
0
  0
LINE
  8
1
 62
7
 10
86.80000000000001
 20
34
 30
0
 11
86.30000000000001
 21
34
 31
0
  0
LINE
  8
1
 62
7
 10
85.80000000000001
 20
-4.5
 30
0
 11
85.80000000000001
 21
34.5
 31
0
  0
LINE
  8
1
 62
4
 10
205.8451756726891
 20
26.79999999999998
 30
0
 11
207.1451756726881
 21
26.7999999999999
 31
0
  0
LINE
  8
1
 62
7
 10
87.30000000000001
 20
31.59999999999999
 30
0
 11
87.30000000000001
 21
-1.599999999999994
 31
0
  0
LINE
  8
1
 62
7
 10
213.7500000000001
 20
73.52170686718691
 30
0
 11
213.7500000000001
 21
71.6438581085587
 31
0
  0
LINE
  8
1
 62
4
 10
208.2500000000001
 20
73.5166911898971
 30
0
 11
208.2500000000001
 21
75.69385810855869
 31
0
  0
LINE
  8
1
 62
7
 10
223.78527221266
 20
75.69385810855869
 30
0
 11
223.78527221266
 21
78.69385810855869
 31
0
  0
LINE
  8
1
 62
4
 10
206.495175672689
 20
26.14999999999981
 30
0
 11
206.495175672689
 21
27.4499999999997
 31
0
  0
LINE
  8
1
 62
4
 10
214.8451756726891
 20
26.79999999999998
 30
0
 11
216.1451756726881
 21
26.7999999999999
 31
0
  0
LINE
  8
1
 62
4
 10
215.495175672689
 20
26.14999999999981
 30
0
 11
215.495175672689
 21
27.4499999999997
 31
0
  0
LINE
  8
1
 62
4
 10
214.8451756726891
 20
3.200000000000301
 30
0
 11
216.1451756726881
 21
3.199999999999704
 31
0
  0
LINE
  8
1
 62
4
 10
215.495175672689
 20
2.549999999999898
 30
0
 11
215.495175672689
 21
3.849999999999795
 31
0
  0
LINE
  8
1
 62
4
 10
210.3451756726891
 20
3.199999999999704
 30
0
 11
211.6451756726881
 21
3.199999999999704
 31
0
  0
LINE
  8
1
 62
3
 10
210.995175672689
 20
2.549999999999898
 30
0
 11
210.995175672689
 21
3.849999999999795
 31
0
  0
LINE
  8
1
 62
4
 10
210.995175672689
 20
2.549999999999898
 30
0
 11
210.995175672689
 21
3.849999999999795
 31
0
  0
LINE
  8
1
 62
4
 10
205.8451756726891
 20
3.200000000000301
 30
0
 11
207.1451756726881
 21
3.199999999999704
 31
0
  0
LINE
  8
1
 62
4
 10
206.495175672689
 20
2.549999999999898
 30
0
 11
206.495175672689
 21
3.849999999999795
 31
0
  0
LINE
  8
1
 62
3
 10
210.995175672689
 20
72.19385810855869
 30
0
 11
210.995175672689
 21
70.48179517726859
 31
0
  0
LINE
  8
1
 62
7
 10
206.995175672689
 20
74.1534383583973
 30
0
 11
206.995175672689
 21
75.69385810855869
 31
0
  0
LINE
  8
1
 62
7
 10
214.995175672689
 20
74.1534383583973
 30
0
 11
214.995175672689
 21
75.69385810855869
 31
0
  0
LINE
  8
1
 62
7
 10
116.849450959428
 20
1.274361025210084
 30
0
 11
96.849450959428
 21
1.274361025210084
 31
0
  0
LINE
  8
1
 62
7
 10
96.849450959428
 20
33.59999999999999
 30
0
 11
99.00706816261805
 21
33.59999999999999
 31
0
  0
LINE
  8
1
 62
7
 10
134.0000000000001
 20
16.5
 30
0
 11
134.0000000000001
 21
32
 31
0
  0
LINE
  8
1
 62
7
 10
131.3999999999999
 20
16.5
 30
0
 11
134.0000000000001
 21
16.5
 31
0
  0
LINE
  8
1
 62
7
 10
131.3999999999999
 20
13.5
 30
0
 11
131.3999999999999
 21
16.5
 31
0
  0
LINE
  8
1
 62
7
 10
134.0000000000001
 20
13.5
 30
0
 11
131.3999999999999
 21
13.5
 31
0
  0
LINE
  8
1
 62
7
 10
137.0000000000001
 20
20
 30
0
 11
135.0000000000001
 21
20
 31
0
  0
LINE
  8
1
 62
7
 10
135.0000000000001
 20
20
 30
0
 11
135.0000000000001
 21
10
 31
0
  0
LINE
  8
1
 62
7
 10
135.0000000000001
 20
10
 30
0
 11
137.0000000000001
 21
10
 31
0
  0
LINE
  8
1
 62
7
 10
147.3999999999999
 20
6
 30
0
 11
137.0000000000001
 21
6
 31
0
  0
LINE
  8
1
 62
7
 10
147.3999999999999
 20
24.5
 30
0
 11
137.0000000000001
 21
24.5
 31
0
  0
LINE
  8
1
 62
7
 10
129.8
 20
-3.600000000000108
 30
0
 11
129.8
 21
-2
 31
0
  0
LINE
  8
1
 62
7
 10
129.8
 20
-2
 30
0
 11
134.0000000000001
 21
-2
 31
0
  0
LINE
  8
1
 62
7
 10
134.0000000000001
 20
-2
 30
0
 11
134.0000000000001
 21
13.5
 31
0
  0
LINE
  8
1
 62
7
 10
134.0000000000001
 20
32
 30
0
 11
129.8
 21
32
 31
0
  0
LINE
  8
1
 62
7
 10
129.8
 20
32
 30
0
 11
129.8
 21
33.59999999999988
 31
0
  0
LINE
  8
1
 62
7
 10
129.8
 20
-3.600000000000108
 30
0
 11
89.30000000000001
 21
-3.599999999999994
 31
0
  0
LINE
  8
1
 62
7
 10
137.0000000000001
 20
24
 30
0
 11
147.3999999999999
 21
24
 31
0
  0
LINE
  8
1
 62
7
 10
147.3999999999999
 20
24
 30
0
 11
147.3999999999999
 21
24.5
 31
0
  0
LINE
  8
1
 62
7
 10
137.0000000000001
 20
5.5
 30
0
 11
147.3999999999999
 21
5.5
 31
0
  0
LINE
  8
1
 62
7
 10
147.3999999999999
 20
5.5
 30
0
 11
147.3999999999999
 21
6
 31
0
  0
LINE
  8
1
 62
7
 10
134.0000000000001
 20
28.5
 30
0
 11
137.0000000000001
 21
28.5
 31
0
  0
LINE
  8
1
 62
7
 10
134.0000000000001
 20
1.5
 30
0
 11
137.0000000000001
 21
1.5
 31
0
  0
LINE
  8
1
 62
7
 10
141.0000000000001
 20
15
 30
0
 11
141.0000000000001
 21
8
 31
0
  0
LINE
  8
1
 62
7
 10
140.0000000000001
 20
7
 30
0
 11
137.0000000000001
 21
7
 31
0
  0
LINE
  8
1
 62
7
 10
141.0000000000001
 20
22
 30
0
 11
141.0000000000001
 21
15
 31
0
  0
LINE
  8
1
 62
7
 10
137.0000000000001
 20
22.99999999999989
 30
0
 11
140.0000000000001
 21
23
 31
0
  0
LINE
  8
1
 62
7
 10
134.0000000000001
 20
-0.3399288330811032
 30
0
 11
134.0000000000001
 21
2.660071166918897
 31
0
  0
LINE
  8
1
 62
3
 10
224.232345009006
 20
3.892696092064796
 30
0
 11
220.7352984325481
 21
6.827066584579796
 31
0
  0
LINE
  8
1
 62
3
 10
201.2550529128289
 20
6.827066584579796
 30
0
 11
197.758006336371
 21
3.892696092064796
 31
0
  0
LINE
  8
1
 62
3
 10
220.7352984325481
 20
23.17293341541989
 30
0
 11
224.232345009006
 21
26.10730390793481
 31
0
  0
LINE
  8
1
 62
3
 10
197.758006336371
 20
26.10730390793481
 30
0
 11
201.2550529128289
 21
23.17293341541989
 31
0
  0
LINE
  8
1
 62
3
 10
210.995175672689
 20
-2.472791896940294
 30
0
 11
210.995175672689
 21
4.527208103059706
 31
0
  0
LINE
  8
1
 62
7
 10
208.2500000000001
 20
71.69385810855869
 30
0
 11
204.0000000000001
 21
71.69385810855869
 31
0
  0
LINE
  8
1
 62
3
 10
211.0000000000001
 20
67.64885810855859
 30
0
 11
211.0000000000001
 21
67.84385810855861
 31
0
  0
LINE
  8
1
 62
3
 10
211.0000000000001
 20
69.3388581085587
 30
0
 11
211.0000000000001
 21
67.64885810855859
 31
0
  0
LINE
  8
1
 62
3
 10
211.8450000000001
 20
68.4938581085587
 30
0
 11
210.155
 21
68.4938581085587
 31
0
  0
LINE
  8
1
 62
3
 10
211.0000000000001
 20
67.84385810855861
 30
0
 11
211.0000000000001
 21
69.3388581085587
 31
0
  0
LINE
  8
1
 62
7
 10
213.3750000000001
 20
66.2938581085586
 30
0
 11
208.6250000000001
 21
66.2938581085586
 31
0
  0
LINE
  8
1
 62
7
 10
208.6250000000001
 20
66.2938581085586
 30
0
 11
209.6250000000001
 21
65.2938581085586
 31
0
  0
LINE
  8
1
 62
7
 10
212.3750000000001
 20
65.2938581085586
 30
0
 11
213.3750000000001
 21
66.2938581085586
 31
0
  0
LINE
  8
1
 62
7
 10
208.2500000000001
 20
75.69385810855869
 30
0
 11
213.7500000000001
 21
75.69385810855869
 31
0
  0
LINE
  8
1
 62
7
 10
208.2500000000001
 20
71.6438581085587
 30
0
 11
208.2500000000001
 21
73.5166911898971
 31
0
  0
LINE
  8
1
 62
7
 10
208.6250000000001
 20
71.6438581085587
 30
0
 11
208.2500000000001
 21
71.6438581085587
 31
0
  0
LINE
  8
1
 62
7
 10
208.6250000000001
 20
66.2938581085586
 30
0
 11
208.6250000000001
 21
71.6438581085587
 31
0
  0
LINE
  8
1
 62
7
 10
212.3750000000001
 20
65.2938581085586
 30
0
 11
209.6250000000001
 21
65.2938581085586
 31
0
  0
LINE
  8
1
 62
7
 10
213.3750000000001
 20
71.6438581085587
 30
0
 11
213.3750000000001
 21
66.2938581085586
 31
0
  0
LINE
  8
1
 62
7
 10
213.7500000000001
 20
71.6438581085587
 30
0
 11
213.3750000000001
 21
71.6438581085587
 31
0
  0
LINE
  8
1
 62
7
 10
213.7500000000001
 20
75.69385810855869
 30
0
 11
218.0000000000001
 21
75.69385810855869
 31
0
  0
LINE
  8
1
 62
4
 10
213.7500000000001
 20
75.69385810855869
 30
0
 11
213.7500000000001
 21
73.52170686718691
 31
0
  0
LINE
  8
1
 62
3
 10
216.628969246475
 20
24.27499999999981
 30
0
 11
205.628969246475
 21
24.27499999999981
 31
0
  0
LINE
  8
1
 62
3
 10
205.628969246475
 20
5.724999999999795
 30
0
 11
216.628969246475
 21
5.724999999999795
 31
0
  0
LINE
  8
1
 62
3
 10
210.995175672689
 20
16.99999999999989
 30
0
 11
210.995175672689
 21
22.99999999999989
 31
0
  0
LINE
  8
1
 62
7
 10
218.0000000000001
 20
71.69385810855869
 30
0
 11
213.7500000000001
 21
71.69385810855869
 31
0
  0
LINE
  8
1
 62
7
 10
203.0000000000001
 20
75.69385810855869
 30
0
 11
202.0000000000001
 21
75.69385810855869
 31
0
  0
LINE
  8
1
 62
7
 10
219.0000000000001
 20
75.69385810855869
 30
0
 11
219.9999999999989
 21
75.69385810855869
 31
0
  0
LINE
  8
1
 62
7
 10
229.6
 20
78.69385810855869
 30
0
 11
229.6
 21
75.69385810855869
 31
0
  0
LINE
  8
1
 62
7
 10
203.0000000000001
 20
75.69385810855869
 30
0
 11
204.0000000000001
 21
75.69385810855869
 31
0
  0
LINE
  8
1
 62
7
 10
203.0000000000001
 20
72.69385810855869
 30
0
 11
203.0000000000001
 21
75.69385810855869
 31
0
  0
LINE
  8
1
 62
7
 10
219.0000000000001
 20
75.69385810855869
 30
0
 11
219.0000000000001
 21
72.69385810855869
 31
0
  0
LINE
  8
1
 62
7
 10
192.3999999999999
 20
78.69385810855869
 30
0
 11
229.6
 21
78.69385810855869
 31
0
  0
LINE
  8
1
 62
7
 10
89.30000000000001
 20
33.59999999999999
 30
0
 11
96.849450959428
 21
33.59999999999999
 31
0
  0
LINE
  8
1
 62
7
 10
219.9999999999989
 20
78.69385810855869
 30
0
 11
219.9999999999989
 21
75.69385810855869
 31
0
  0
LINE
  8
1
 62
7
 10
219.9999999999989
 20
75.69385810855869
 30
0
 11
229.6
 21
75.69385810855869
 31
0
  0
LINE
  8
1
 62
7
 10
202.0000000000001
 20
78.69385810855869
 30
0
 11
202.0000000000001
 21
75.69385810855869
 31
0
  0
LINE
  8
1
 62
7
 10
202.0000000000001
 20
75.69385810855869
 30
0
 11
198.2050791327181
 21
75.69385810855869
 31
0
  0
LINE
  8
1
 62
7
 10
198.2050791327181
 20
78.69385810855869
 30
0
 11
198.2050791327181
 21
75.69385810855869
 31
0
  0
LINE
  8
1
 62
7
 10
198.2050791327181
 20
75.69385810855869
 30
0
 11
192.3999999999999
 21
75.69385810855869
 31
0
  0
LINE
  8
1
 62
7
 10
218.0000000000001
 20
75.69385810855869
 30
0
 11
218.0000000000001
 21
78.69385810855869
 31
0
  0
LINE
  8
1
 62
7
 10
218.0000000000001
 20
75.69385810855869
 30
0
 11
219.0000000000001
 21
75.69385810855869
 31
0
  0
LINE
  8
1
 62
7
 10
204.0000000000001
 20
75.69385810855869
 30
0
 11
204.0000000000001
 21
78.69385810855869
 31
0
  0
LINE
  8
1
 62
7
 10
204.0000000000001
 20
75.69385810855869
 30
0
 11
208.2500000000001
 21
75.69385810855869
 31
0
  0
LINE
  8
1
 62
7
 10
218.5000000000001
 20
82.8938581085587
 30
0
 11
213.5000000000001
 21
82.8938581085587
 31
0
  0
LINE
  8
1
 62
7
 10
208.5000000000001
 20
82.8938581085587
 30
0
 11
203.5000000000001
 21
82.8938581085587
 31
0
  0
LINE
  8
1
 62
7
 10
218.5000000000001
 20
82.8938581085587
 30
0
 11
218.5000000000001
 21
80.8938581085587
 31
0
  0
LINE
  8
1
 62
7
 10
218.5000000000001
 20
80.8938581085587
 30
0
 11
216.7857142857141
 21
80.69385810855869
 31
0
  0
LINE
  8
1
 62
7
 10
212.5000000000001
 20
80.19385810855869
 30
0
 11
209.5000000000001
 21
80.19385810855869
 31
0
  0
LINE
  8
1
 62
7
 10
209.5000000000001
 20
80.19385810855869
 30
0
 11
205.2142857142861
 21
80.69385810855869
 31
0
  0
LINE
  8
1
 62
7
 10
203.5000000000001
 20
80.8938581085587
 30
0
 11
203.5000000000001
 21
82.8938581085587
 31
0
  0
LINE
  8
1
 62
7
 10
216.7857142857141
 20
80.69385810855869
 30
0
 11
212.0000000000001
 21
80.6938581085586
 31
0
  0
LINE
  8
1
 62
7
 10
216.7857142857141
 20
80.69385810855869
 30
0
 11
212.5000000000001
 21
80.19385810855869
 31
0
  0
LINE
  8
1
 62
7
 10
205.2142857142861
 20
80.69385810855869
 30
0
 11
203.5000000000001
 21
80.8938581085587
 31
0
  0
LINE
  8
1
 62
7
 10
212.5000000000001
 20
79.6954998410196
 30
0
 11
212.5000000000001
 21
79.1954998410196
 31
0
  0
LINE
  8
1
 62
7
 10
209.5000000000001
 20
79.1954998410196
 30
0
 11
209.5000000000001
 21
79.6954998410196
 31
0
  0
LINE
  8
1
 62
7
 10
212.0000000000001
 20
80.6938581085586
 30
0
 11
212.0000000000001
 21
82.29886076289171
 31
0
  0
LINE
  8
1
 62
7
 10
212.0000000000001
 20
80.6938581085586
 30
0
 11
210.0000000000001
 21
80.69385810855869
 31
0
  0
LINE
  8
1
 62
7
 10
210.0000000000001
 20
80.69385810855869
 30
0
 11
210.0000000000001
 21
82.29886076289171
 31
0
  0
LINE
  8
1
 62
7
 10
210.0000000000001
 20
80.69385810855869
 30
0
 11
205.2142857142861
 21
80.69385810855869
 31
0
  0
LINE
  8
1
 62
7
 10
192.3999999999999
 20
78.69385810855869
 30
0
 11
192.3999999999999
 21
75.69385810855869
 31
0
  0
LINE
  8
1
 62
3
 10
210.995175672689
 20
3.849999999999795
 30
0
 11
210.995175672689
 21
16.99999999999989
 31
0
  0
LINE
  8
1
 62
3
 10
210.995175672689
 20
2.549999999999898
 30
0
 11
210.995175672689
 21
3.849999999999795
 31
0
  0
LINE
  8
1
 62
3
 10
210.995175672689
 20
26.14999999999981
 30
0
 11
210.995175672689
 21
27.4499999999997
 31
0
  0
LINE
  8
1
 62
3
 10
210.995175672689
 20
26.14999999999981
 30
0
 11
210.995175672689
 21
27.4499999999997
 31
0
  0
LINE
  8
1
 62
4
 10
210.3451756726891
 20
26.7999999999999
 30
0
 11
211.6451756726881
 21
26.7999999999999
 31
0
  0
LINE
  8
1
 62
7
 10
196.218166503036
 20
9.999999999999886
 30
0
 11
193.0798191314421
 21
9.999999999999886
 31
0
  0
LINE
  8
1
 62
7
 10
222.995175672689
 20
21.99999999999989
 30
0
 11
221.995175672689
 21
21.99999999999989
 31
0
  0
LINE
  8
1
 62
7
 10
225.772184842341
 20
9.999999999999886
 30
0
 11
226.824262822616
 21
9.999999999999886
 31
0
  0
LINE
  8
1
 62
7
 10
226.824262822616
 20
9.999999999999886
 30
0
 11
228.9105322139351
 21
9.999999999999886
 31
0
  0
LINE
  8
1
 62
7
 10
224.995175672689
 20
19.99999999999989
 30
0
 11
228.9105322139351
 21
19.99999999999989
 31
0
  0
LINE
  8
1
 62
7
 10
196.218166503036
 20
19.99999999999989
 30
0
 11
195.166088522761
 21
19.99999999999989
 31
0
  0
LINE
  8
1
 62
7
 10
195.166088522761
 20
19.99999999999989
 30
0
 11
193.0798191314421
 21
19.99999999999989
 31
0
  0
LINE
  8
1
 62
7
 10
196.995175672689
 20
9.999999999999886
 30
0
 11
196.218166503036
 21
9.999999999999886
 31
0
  0
LINE
  8
1
 62
3
 10
210.995175672689
 20
27.4499999999997
 30
0
 11
210.995175672689
 21
38.58741151126299
 31
0
  0
LINE
  8
1
 62
7
 10
214.8681590188961
 20
21.99999999999989
 30
0
 11
216.6520299221809
 21
21.99999999999989
 31
0
  0
LINE
  8
1
 62
7
 10
207.122192326481
 20
7.999999999999886
 30
0
 11
205.3383214231961
 21
7.999999999999886
 31
0
  0
LINE
  8
1
 62
3
 10
210.995175672689
 20
22.99999999999989
 30
0
 11
210.995175672689
 21
26.14999999999981
 31
0
  0
LINE
  8
1
 62
3
 10
187.395175672689
 20
15.00000000000009
 30
0
 11
234.595175672688
 21
14.99999999999989
 31
0
  0
LINE
  8
1
 62
7
 10
201.995175672689
 20
1.499999999999886
 30
0
 11
201.995175672689
 21
3.999999999999886
 31
0
  0
LINE
  8
1
 62
7
 10
198.200254805407
 20
28.49999999999989
 30
0
 11
201.995175672689
 21
28.49999999999989
 31
0
  0
LINE
  8
1
 62
7
 10
198.200254805407
 20
1.499999999999886
 30
0
 11
201.995175672689
 21
1.499999999999886
 31
0
  0
LINE
  8
1
 62
7
 10
219.995175672689
 20
3.999999999999886
 30
0
 11
219.995175672689
 21
1.499999999999886
 31
0
  0
LINE
  8
1
 62
7
 10
201.995175672689
 20
3.999999999999886
 30
0
 11
204.995175672689
 21
3.999999999999886
 31
0
  0
LINE
  8
1
 62
7
 10
201.995175672689
 20
25.99999999999989
 30
0
 11
201.995175672689
 21
28.49999999999989
 31
0
  0
LINE
  8
1
 62
7
 10
215.495175672689
 20
23.99999999999989
 30
0
 11
215.495175672689
 21
24.5499999999999
 31
0
  0
LINE
  8
1
 62
7
 10
215.495175672689
 20
24.5499999999999
 30
0
 11
206.495175672689
 21
24.5499999999999
 31
0
  0
LINE
  8
1
 62
7
 10
206.495175672689
 20
24.5499999999999
 30
0
 11
206.495175672689
 21
23.99999999999989
 31
0
  0
LINE
  8
1
 62
7
 10
206.495175672689
 20
23.99999999999989
 30
0
 11
206.557675672689
 21
23.99999999999989
 31
0
  0
LINE
  8
1
 62
7
 10
206.557675672689
 20
23.99999999999989
 30
0
 11
215.432675672689
 21
23.99999999999989
 31
0
  0
LINE
  8
1
 62
7
 10
215.432675672689
 20
23.99999999999989
 30
0
 11
215.495175672689
 21
23.99999999999989
 31
0
  0
LINE
  8
1
 62
7
 10
215.495175672689
 20
5.449999999999704
 30
0
 11
215.495175672689
 21
5.999999999999886
 31
0
  0
LINE
  8
1
 62
7
 10
206.495175672689
 20
5.449999999999704
 30
0
 11
215.495175672689
 21
5.449999999999704
 31
0
  0
LINE
  8
1
 62
7
 10
206.495175672689
 20
5.999999999999886
 30
0
 11
206.495175672689
 21
5.449999999999704
 31
0
  0
LINE
  8
1
 62
7
 10
206.557675672689
 20
5.999999999999886
 30
0
 11
206.495175672689
 21
5.999999999999886
 31
0
  0
LINE
  8
1
 62
7
 10
215.432675672689
 20
5.999999999999886
 30
0
 11
206.557675672689
 21
5.999999999999886
 31
0
  0
LINE
  8
1
 62
7
 10
215.495175672689
 20
5.999999999999886
 30
0
 11
215.432675672689
 21
5.999999999999886
 31
0
  0
LINE
  8
1
 62
7
 10
195.9432654949069
 20
21.99999999999989
 30
0
 11
197.728676511267
 21
21.99999999999989
 31
0
  0
LINE
  8
1
 62
7
 10
226.047085850471
 20
7.999999999999886
 30
0
 11
224.26167483411
 21
7.999999999999886
 31
0
  0
LINE
  8
1
 62
7
 10
201.995175672689
 20
25.99999999999989
 30
0
 11
201.995175672689
 21
24
 31
0
  0
LINE
  8
1
 62
7
 10
219.995175672689
 20
26
 30
0
 11
216.995175672689
 21
25.99999999999989
 31
0
  0
LINE
  8
1
 62
7
 10
219.995175672689
 20
24
 30
0
 11
219.995175672689
 21
26
 31
0
  0
LINE
  8
1
 62
7
 10
204.995175672689
 20
21.99999999999989
 30
0
 11
205.3383214231961
 21
21.99999999999989
 31
0
  0
LINE
  8
1
 62
7
 10
204.995175672689
 20
25.99999999999989
 30
0
 11
201.995175672689
 21
25.99999999999989
 31
0
  0
LINE
  8
1
 62
7
 10
203.995175672689
 20
22.99999999999989
 30
0
 11
203.995175672689
 21
24.99999999999989
 31
0
  0
LINE
  8
1
 62
7
 10
203.995175672689
 20
6.999999999999886
 30
0
 11
203.995175672689
 21
4.999999999999886
 31
0
  0
LINE
  8
1
 62
7
 10
204.995175672689
 20
3.999999999999886
 30
0
 11
216.995175672689
 21
3.999999999999886
 31
0
  0
LINE
  8
1
 62
7
 10
201.995175672689
 20
3.999999999999886
 30
0
 11
201.995175672689
 21
6
 31
0
  0
LINE
  8
1
 62
7
 10
199.995175672689
 20
7.999999999999886
 30
0
 11
198.995175672689
 21
7.999999999999886
 31
0
  0
LINE
  8
1
 62
7
 10
219.995175672689
 20
3.999999999999886
 30
0
 11
219.995175672689
 21
6
 31
0
  0
LINE
  8
1
 62
7
 10
217.995175672689
 20
4.999999999999886
 30
0
 11
217.995175672689
 21
6.999999999999886
 31
0
  0
LINE
  8
1
 62
7
 10
216.995175672689
 20
3.999999999999886
 30
0
 11
219.995175672689
 21
3.999999999999886
 31
0
  0
LINE
  8
1
 62
7
 10
216.995175672689
 20
7.999999999999886
 30
0
 11
216.6520299221809
 21
7.999999999999886
 31
0
  0
LINE
  8
1
 62
7
 10
217.995175672689
 20
22.99999999999989
 30
0
 11
217.995175672689
 21
24.99999999999989
 31
0
  0
LINE
  8
1
 62
7
 10
216.995175672689
 20
25.99999999999989
 30
0
 11
204.995175672689
 21
25.99999999999989
 31
0
  0
LINE
  8
1
 62
7
 10
219.995175672689
 20
1.499999999999886
 30
0
 11
223.79009653997
 21
1.499999999999886
 31
0
  0
LINE
  8
1
 62
7
 10
219.995175672689
 20
28.49999999999989
 30
0
 11
223.79009653997
 21
28.49999999999989
 31
0
  0
LINE
  8
1
 62
7
 10
219.995175672689
 20
28.49999999999989
 30
0
 11
219.995175672689
 21
26
 31
0
  0
LINE
  8
1
 62
4
 10
204.545175672688
 20
2.799999999999898
 30
0
 11
203.945175672689
 21
2.799999999999898
 31
0
  0
LINE
  8
1
 62
4
 10
203.945175672689
 20
2.799999999999898
 30
0
 11
203.945175672689
 21
0.5999999999997954
 31
0
  0
LINE
  8
1
 62
4
 10
203.945175672689
 20
0.5999999999997954
 30
0
 11
204.545175672688
 21
0.5999999999997954
 31
0
  0
LINE
  8
1
 62
4
 10
204.545175672688
 20
0.5999999999997954
 30
0
 11
204.545175672688
 21
2.799999999999898
 31
0
  0
LINE
  8
1
 62
4
 10
217.445175672689
 20
27.1999999999997
 30
0
 11
218.0451756726891
 21
27.1999999999997
 31
0
  0
LINE
  8
1
 62
4
 10
218.0451756726891
 20
27.1999999999997
 30
0
 11
218.0451756726891
 21
29.39999999999981
 31
0
  0
LINE
  8
1
 62
4
 10
218.0451756726891
 20
29.39999999999981
 30
0
 11
217.445175672689
 21
29.39999999999981
 31
0
  0
LINE
  8
1
 62
4
 10
217.445175672689
 20
29.39999999999981
 30
0
 11
217.445175672689
 21
27.1999999999997
 31
0
  0
LINE
  8
1
 62
4
 10
209.8951756726881
 20
25.2999999999999
 30
0
 11
212.095175672688
 21
25.2999999999999
 31
0
  0
LINE
  8
1
 62
4
 10
209.8951756726881
 20
25.89999999999981
 30
0
 11
209.8951756726881
 21
25.8499999999998
 31
0
  0
LINE
  8
1
 62
4
 10
212.095175672688
 20
25.89999999999981
 30
0
 11
209.8951756726881
 21
25.89999999999981
 31
0
  0
LINE
  8
1
 62
4
 10
212.095175672688
 20
25.2999999999999
 30
0
 11
212.095175672688
 21
25.8499999999998
 31
0
  0
LINE
  8
1
 62
4
 10
209.8951756726881
 20
25.8499999999998
 30
0
 11
209.8951756726881
 21
25.2999999999999
 31
0
  0
LINE
  8
1
 62
4
 10
212.095175672688
 20
25.8499999999998
 30
0
 11
212.095175672688
 21
25.89999999999981
 31
0
  0
LINE
  8
1
 62
4
 10
212.095175672688
 20
4.699999999999704
 30
0
 11
209.8951756726881
 21
4.699999999999704
 31
0
  0
LINE
  8
1
 62
4
 10
209.8951756726881
 20
4.149999999999807
 30
0
 11
209.8951756726881
 21
4.099999999999795
 31
0
  0
LINE
  8
1
 62
4
 10
209.8951756726881
 20
4.099999999999795
 30
0
 11
212.095175672688
 21
4.099999999999795
 31
0
  0
LINE
  8
1
 62
4
 10
212.095175672688
 20
4.149999999999807
 30
0
 11
212.095175672688
 21
4.699999999999704
 31
0
  0
LINE
  8
1
 62
4
 10
209.8951756726881
 20
4.699999999999704
 30
0
 11
209.8951756726881
 21
4.149999999999807
 31
0
  0
LINE
  8
1
 62
4
 10
212.095175672688
 20
4.099999999999795
 30
0
 11
212.095175672688
 21
4.149999999999807
 31
0
  0
LINE
  8
1
 62
7
 10
205.3383214231961
 20
7.999999999999886
 30
0
 11
204.995175672689
 21
7.999999999999886
 31
0
  0
LINE
  8
1
 62
7
 10
205.3383214231961
 20
21.99999999999989
 30
0
 11
207.122192326481
 21
21.99999999999989
 31
0
  0
LINE
  8
1
 62
7
 10
216.6520299221809
 20
21.99999999999989
 30
0
 11
216.995175672689
 21
21.99999999999989
 31
0
  0
LINE
  8
1
 62
7
 10
216.6520299221809
 20
7.999999999999886
 30
0
 11
214.8681590188961
 21
7.999999999999886
 31
0
  0
LINE
  8
1
 62
7
 10
197.728676511267
 20
21.99999999999989
 30
0
 11
199.995175672689
 21
21.99999999999989
 31
0
  0
LINE
  8
1
 62
7
 10
224.26167483411
 20
7.999999999999886
 30
0
 11
221.995175672689
 21
7.999999999999886
 31
0
  0
LINE
  8
1
 62
3
 10
210.995175672689
 20
-8.587411511263412
 30
0
 11
210.995175672689
 21
2.549999999999898
 31
0
  0
LINE
  8
1
 62
4
 10
218.0451756726891
 20
2.799999999999898
 30
0
 11
217.445175672689
 21
2.799999999999898
 31
0
  0
LINE
  8
1
 62
4
 10
218.0451756726891
 20
0.5999999999997954
 30
0
 11
218.0451756726891
 21
2.799999999999898
 31
0
  0
LINE
  8
1
 62
4
 10
217.445175672689
 20
0.5999999999997954
 30
0
 11
218.0451756726891
 21
0.5999999999997954
 31
0
  0
LINE
  8
1
 62
4
 10
217.445175672689
 20
2.799999999999898
 30
0
 11
217.445175672689
 21
0.5999999999997954
 31
0
  0
LINE
  8
1
 62
4
 10
203.945175672689
 20
27.1999999999997
 30
0
 11
204.5451756726891
 21
27.1999999999997
 31
0
  0
LINE
  8
1
 62
4
 10
203.945175672689
 20
29.39999999999981
 30
0
 11
203.945175672689
 21
27.1999999999997
 31
0
  0
LINE
  8
1
 62
4
 10
204.5451756726891
 20
29.39999999999981
 30
0
 11
203.945175672689
 21
29.39999999999981
 31
0
  0
LINE
  8
1
 62
4
 10
204.5451756726891
 20
27.1999999999997
 30
0
 11
204.5451756726891
 21
29.39999999999981
 31
0
  0
LINE
  8
1
 62
7
 10
210.1451756726881
 20
31.97873670212189
 30
0
 11
210.1451756726881
 21
30.99999999999989
 31
0
  0
LINE
  8
1
 62
7
 10
211.845175672688
 20
31.97873670212189
 30
0
 11
211.845175672688
 21
30.99999999999989
 31
0
  0
LINE
  8
1
 62
7
 10
210.1451756726881
 20
30.99999999999989
 30
0
 11
211.845175672688
 21
30.99999999999989
 31
0
  0
LINE
  8
1
 62
7
 10
210.1451756726881
 20
-1.978736702122319
 30
0
 11
210.1451756726881
 21
-1.000000000000114
 31
0
  0
LINE
  8
1
 62
7
 10
211.845175672688
 20
-1.978736702122319
 30
0
 11
211.845175672688
 21
-1.000000000000114
 31
0
  0
LINE
  8
1
 62
7
 10
210.1451756726881
 20
-1.000000000000114
 30
0
 11
211.845175672688
 21
-1.000000000000114
 31
0
  0
LINE
  8
1
 62
7
 10
210.3106860693341
 20
-0.695530415477208
 30
0
 11
205.2376322292089
 21
-2.061056676248313
 31
0
  0
LINE
  8
1
 62
7
 10
210.3106860693341
 20
-0.695530415477208
 30
0
 11
205.2376322292089
 21
-2.061056676248313
 31
0
  0
LINE
  8
1
 62
7
 10
216.752719116169
 20
-2.061056676248313
 30
0
 11
211.679665276045
 21
-0.695530415477208
 31
0
  0
LINE
  8
1
 62
7
 10
209.842873268857
 20
0.8654084278838923
 30
0
 11
205.11141675192
 21
-0.3719602834852083
 31
0
  0
LINE
  8
1
 62
7
 10
209.842873268857
 20
0.8654084278838923
 30
0
 11
205.11141675192
 21
-0.3719602834852083
 31
0
  0
LINE
  8
1
 62
7
 10
216.878934593457
 20
-0.3719602834852083
 30
0
 11
212.1474780765209
 21
0.8654084278838923
 31
0
  0
LINE
  8
1
 62
7
 10
216.878934593457
 20
-0.3719602834852083
 30
0
 11
212.1474780765209
 21
0.8654084278838923
 31
0
  0
LINE
  8
1
 62
7
 10
212.1474780765209
 20
29.13459157211568
 30
0
 11
216.878934593457
 21
30.37196028348478
 31
0
  0
LINE
  8
1
 62
4
 10
218.0451756726891
 20
29.39999999999981
 30
0
 11
217.445175672689
 21
29.39999999999981
 31
0
  0
LINE
  8
1
 62
7
 10
212.1474780765209
 20
29.13459157211568
 30
0
 11
216.878934593457
 21
30.37196028348478
 31
0
  0
LINE
  8
1
 62
7
 10
205.11141675192
 20
30.37196028348478
 30
0
 11
209.842873268857
 21
29.13459157211568
 31
0
  0
LINE
  8
1
 62
7
 10
205.2376322292089
 20
32.06105667624789
 30
0
 11
210.3106860693341
 21
30.69553041547678
 31
0
  0
LINE
  8
1
 62
7
 10
205.2376322292089
 20
32.06105667624789
 30
0
 11
210.3106860693341
 21
30.69553041547678
 31
0
  0
LINE
  8
1
 62
7
 10
205.2376322292089
 20
32.06105667624789
 30
0
 11
210.3106860693341
 21
30.69553041547678
 31
0
  0
LINE
  8
1
 62
7
 10
211.679665276045
 20
30.69553041547678
 30
0
 11
216.752719116169
 21
32.06105667624789
 31
0
  0
LINE
  8
1
 62
7
 10
211.679665276045
 20
30.69553041547678
 30
0
 11
216.752719116169
 21
32.06105667624789
 31
0
  0
LINE
  8
1
 62
7
 10
208.495175672689
 20
31.8151717207999
 30
0
 11
208.495175672689
 21
33.41851966605981
 31
0
  0
LINE
  8
1
 62
7
 10
213.495175672689
 20
31.8151717207999
 30
0
 11
213.495175672689
 21
33.41851966605981
 31
0
  0
LINE
  8
1
 62
7
 10
208.495175672689
 20
-1.815171720800294
 30
0
 11
208.495175672689
 21
-3.418519666060206
 31
0
  0
LINE
  8
1
 62
7
 10
213.495175672689
 20
-1.815171720800294
 30
0
 11
213.495175672689
 21
-3.418519666060206
 31
0
  0
LINE
  8
1
 62
7
 10
197.09517567269
 20
13.39999999999981
 30
0
 11
197.09517567269
 21
12.8499999999998
 31
0
  0
LINE
  8
1
 62
4
 10
201.59517567269
 20
13.39999999999981
 30
0
 11
197.09517567269
 21
13.39999999999981
 31
0
  0
LINE
  8
1
 62
7
 10
201.59517567269
 20
12.8499999999998
 30
0
 11
201.59517567269
 21
13.39999999999981
 31
0
  0
LINE
  8
1
 62
7
 10
197.09517567269
 20
12.8499999999998
 30
0
 11
201.59517567269
 21
12.8499999999998
 31
0
  0
LINE
  8
1
 62
7
 10
197.09517567269
 20
17.14999999999981
 30
0
 11
197.09517567269
 21
16.5999999999998
 31
0
  0
LINE
  8
1
 62
7
 10
201.59517567269
 20
17.14999999999981
 30
0
 11
197.09517567269
 21
17.14999999999981
 31
0
  0
LINE
  8
1
 62
7
 10
201.59517567269
 20
16.5999999999998
 30
0
 11
201.59517567269
 21
17.14999999999981
 31
0
  0
LINE
  8
1
 62
4
 10
197.09517567269
 20
16.5999999999998
 30
0
 11
201.59517567269
 21
16.5999999999998
 31
0
  0
LINE
  8
1
 62
7
 10
197.09517567269
 20
12.89999999999981
 30
0
 11
197.09517567269
 21
14.0999999999998
 31
0
  0
LINE
  8
1
 62
7
 10
197.59517567269
 20
14.5999999999998
 30
0
 11
201.09517567269
 21
14.5999999999998
 31
0
  0
LINE
  8
1
 62
7
 10
201.59517567269
 20
14.0999999999998
 30
0
 11
201.59517567269
 21
12.89999999999981
 31
0
  0
LINE
  8
1
 62
7
 10
197.09517567269
 20
13.39999999999981
 30
0
 11
197.09517567269
 21
12.8499999999998
 31
0
  0
LINE
  8
1
 62
7
 10
197.09517567269
 20
12.8499999999998
 30
0
 11
201.59517567269
 21
12.8499999999998
 31
0
  0
LINE
  8
1
 62
7
 10
201.59517567269
 20
12.8499999999998
 30
0
 11
201.59517567269
 21
13.39999999999981
 31
0
  0
LINE
  8
1
 62
7
 10
197.59517567269
 20
15.39999999999981
 30
0
 11
201.09517567269
 21
15.39999999999981
 31
0
  0
LINE
  8
1
 62
7
 10
197.09517567269
 20
17.0999999999998
 30
0
 11
197.09517567269
 21
15.89999999999981
 31
0
  0
LINE
  8
1
 62
7
 10
201.59517567269
 20
17.14999999999981
 30
0
 11
197.09517567269
 21
17.14999999999981
 31
0
  0
LINE
  8
1
 62
7
 10
197.09517567269
 20
17.14999999999981
 30
0
 11
197.09517567269
 21
16.5999999999998
 31
0
  0
LINE
  8
1
 62
7
 10
201.59517567269
 20
15.89999999999981
 30
0
 11
201.59517567269
 21
17.0999999999998
 31
0
  0
LINE
  8
1
 62
7
 10
224.895175672689
 20
12.8499999999998
 30
0
 11
224.895175672689
 21
13.39999999999981
 31
0
  0
LINE
  8
1
 62
7
 10
224.89517567269
 20
16.5999999999998
 30
0
 11
224.895175672689
 21
17.14999999999981
 31
0
  0
LINE
  8
1
 62
7
 10
224.895175672689
 20
12.8499999999998
 30
0
 11
224.895175672689
 21
13.39999999999981
 31
0
  0
LINE
  8
1
 62
4
 10
224.895175672689
 20
13.39999999999981
 30
0
 11
220.39517567269
 21
13.39999999999981
 31
0
  0
LINE
  8
1
 62
7
 10
220.39517567269
 20
13.39999999999981
 30
0
 11
220.395175672689
 21
12.8499999999998
 31
0
  0
LINE
  8
1
 62
7
 10
220.395175672689
 20
12.8499999999998
 30
0
 11
224.895175672689
 21
12.8499999999998
 31
0
  0
LINE
  8
1
 62
7
 10
224.89517567269
 20
16.5999999999998
 30
0
 11
224.895175672689
 21
17.14999999999981
 31
0
  0
LINE
  8
1
 62
7
 10
224.895175672689
 20
17.14999999999981
 30
0
 11
220.395175672689
 21
17.14999999999981
 31
0
  0
LINE
  8
1
 62
7
 10
220.395175672689
 20
17.14999999999981
 30
0
 11
220.395175672689
 21
16.5999999999998
 31
0
  0
LINE
  8
1
 62
4
 10
220.395175672689
 20
16.5999999999998
 30
0
 11
224.89517567269
 21
16.5999999999998
 31
0
  0
LINE
  8
1
 62
7
 10
224.895175672689
 20
14.0999999999998
 30
0
 11
224.89517567269
 21
12.89999999999981
 31
0
  0
LINE
  8
1
 62
7
 10
220.895175672689
 20
14.5999999999998
 30
0
 11
224.395175672689
 21
14.5999999999998
 31
0
  0
LINE
  8
1
 62
7
 10
220.395175672689
 20
12.89999999999981
 30
0
 11
220.395175672689
 21
14.0999999999998
 31
0
  0
LINE
  8
1
 62
7
 10
224.895175672689
 20
12.8499999999998
 30
0
 11
224.895175672689
 21
13.39999999999981
 31
0
  0
LINE
  8
1
 62
7
 10
220.395175672689
 20
12.8499999999998
 30
0
 11
224.895175672689
 21
12.8499999999998
 31
0
  0
LINE
  8
1
 62
7
 10
220.39517567269
 20
13.39999999999981
 30
0
 11
220.395175672689
 21
12.8499999999998
 31
0
  0
LINE
  8
1
 62
7
 10
220.895175672689
 20
15.39999999999981
 30
0
 11
224.3951756726881
 21
15.39999999999981
 31
0
  0
LINE
  8
1
 62
7
 10
224.8951756726881
 20
15.89999999999981
 30
0
 11
224.89517567269
 21
17.0999999999998
 31
0
  0
LINE
  8
1
 62
7
 10
224.895175672689
 20
17.14999999999981
 30
0
 11
220.395175672689
 21
17.14999999999981
 31
0
  0
LINE
  8
1
 62
7
 10
224.89517567269
 20
16.5999999999998
 30
0
 11
224.895175672689
 21
17.14999999999981
 31
0
  0
LINE
  8
1
 62
7
 10
220.395175672689
 20
17.0999999999998
 30
0
 11
220.395175672689
 21
15.89999999999981
 31
0
  0
LINE
  8
1
 62
7
 10
99.00706816261805
 20
33.59999999999999
 30
0
 11
119.0070681626181
 21
33.59999999999999
 31
0
  0
LINE
  8
1
 62
7
 10
99.00706816261805
 20
33.59999999999999
 30
0
 11
116.849450959428
 21
33.59999999999999
 31
0
  0
LINE
  8
1
 62
7
 10
116.849450959428
 20
33.59999999999999
 30
0
 11
129.8
 21
33.59999999999988
 31
0
  0
LINE
  8
1
 62
3
 10
210.995175672689
 20
94.04314228182059
 30
0
 11
210.995175672689
 21
61.59168878378358
 31
0
  0
LINE
  8
1
 62
7
 10
192.3999999999999
 20
78.69385810855869
 30
0
 11
192.3999999999999
 21
91.4040072697828
 31
0
  0
LINE
  8
1
 62
7
 10
229.6
 20
88.9944915864007
 30
0
 11
229.6
 21
78.69385810855869
 31
0
  0
LINE
  8
1
 62
7
 10
96.849450959428
 20
28.72563897479
 30
0
 11
116.849450959428
 21
28.72563897479
 31
0
  0
LINE
  8
1
 62
7
 10
96.849450959428
 20
28.72563897479
 30
0
 11
96.849450959428
 21
1.274361025210084
 31
0
  0
LINE
  8
1
 62
7
 10
116.849450959428
 20
1.274361025210084
 30
0
 11
116.849450959428
 21
28.72563897479
 31
0
  0
LINE
  8
1
 62
7
 10
137.0000000000001
 20
1.5
 30
0
 11
137.0000000000001
 21
28.5
 31
0
  0
LINE
  8
1
 62
7
 10
119.9649307842685
 20
90.18931355180801
 30
0
 11
119.9649307842685
 21
85.18931355180801
 31
0
  0
LINE
  8
1
 62
7
 10
159.9649307842685
 20
90.18931355180801
 30
0
 11
119.9649307842685
 21
90.18931355180801
 31
0
  0
LINE
  8
1
 62
7
 10
159.9649307842685
 20
85.18931355180801
 30
0
 11
159.9649307842685
 21
90.18931355180801
 31
0
  0
LINE
  8
1
 62
7
 10
119.9649307842685
 20
85.18931355180801
 30
0
 11
159.9649307842685
 21
85.18931355180801
 31
0
  0
ARC
  8
1
 62
7
 10
-136.0029411764706
 20
28.50294117647064
 30
0
 40
0.7029473295325484
 50
270.2397298960829
 51
359.7602701039151
  0
ARC
  8
1
 62
7
 10
-133.9970588235294
 20
28.50294117647064
 30
0
 40
0.7029473295325237
 50
180.239729896085
 51
270.2397298960806
  0
ARC
  8
1
 62
7
 10
-133.9970588235294
 20
26.49705882352941
 30
0
 40
0.7029473295324985
 50
89.76027010391938
 51
179.7602701039191
  0
ARC
  8
1
 62
7
 10
-136.0029411764706
 20
26.49705882352941
 30
0
 40
0.7029473295325234
 50
0.239729896080919
 51
89.76027010391704
  0
ARC
  8
1
 62
7
 10
-95.00294117647056
 20
28.50294117647064
 30
0
 40
0.7029473295325482
 50
270.2397298960806
 51
359.760270103915
  0
ARC
  8
1
 62
7
 10
-92.99705882352939
 20
28.50294117647064
 30
0
 40
0.7029473295324953
 50
180.239729896085
 51
270.2397298960853
  0
ARC
  8
1
 62
7
 10
-92.99705882352939
 20
26.49705882352941
 30
0
 40
0.7029473295324988
 50
89.76027010391472
 51
179.7602701039191
  0
ARC
  8
1
 62
7
 10
-95.00294117647056
 20
26.49705882352941
 30
0
 40
0.702947329532495
 50
0.2397298960809287
 51
89.76027010391938
  0
ARC
  8
1
 62
7
 10
-115.5029411764707
 20
-7.497058823529358
 30
0
 40
0.7029473295325519
 50
270.2397298960818
 51
359.7602701039148
  0
ARC
  8
1
 62
7
 10
-113.4970588235295
 20
-7.497058823529358
 30
0
 40
0.7029473295325237
 50
180.2397298960852
 51
270.2397298960736
  0
ARC
  8
1
 62
7
 10
-113.4970588235295
 20
-9.502941176470586
 30
0
 40
0.7029473295324946
 50
89.76027010392632
 51
179.7602701039194
  0
ARC
  8
1
 62
7
 10
-115.5029411764707
 20
-9.502941176470586
 30
0
 40
0.7029473295325234
 50
0.2397298960806294
 51
89.7602701039182
  0
ARC
  8
1
 62
7
 10
80.40507042253522
 20
-9.734782463256963
 30
0
 40
8
 50
2.040035164553764
 51
21.5047947996707
  0
ARC
  8
1
 62
7
 10
80.40507042253522
 20
-9.765217536743066
 30
0
 40
7.999999999999998
 50
338.4952052003293
 51
357.9599648354464
  0
ARC
  8
1
 62
7
 10
89.27500000000006
 20
-9.750000000000007
 30
0
 40
0.9250000000000552
 50
161.0753555839497
 51
198.9246444160503
  0
ARC
  8
1
 62
7
 10
80.40507042253522
 20
39.76521753674303
 30
0
 40
8
 50
2.040035164553764
 51
21.5047947996707
  0
ARC
  8
1
 62
7
 10
80.40507042253522
 20
39.73478246325693
 30
0
 40
7.999999999999998
 50
338.4952052003293
 51
357.9599648354464
  0
ARC
  8
1
 62
7
 10
89.27500000000006
 20
39.74999999999999
 30
0
 40
0.9250000000000529
 50
161.0753555839501
 51
198.9246444160507
  0
ARC
  8
1
 62
7
 10
43.79999999999978
 20
42.5
 30
0
 40
15
 50
270
 51
284.8351115819802
  0
ARC
  8
1
 62
3
 10
210.995175672689
 20
15
 30
0
 40
14.99999999999944
 50
310.1709933307054
 51
329.971633270455
  0
ARC
  8
1
 62
3
 10
210.995175672689
 20
15
 30
0
 40
14.99999999999981
 50
210.0283667295431
 51
229.8290066692918
  0
ARC
  8
1
 62
3
 10
210.995175672689
 20
15
 30
0
 40
14.9999999999988
 50
30.02836672954402
 51
49.82900666929352
  0
ARC
  8
1
 62
3
 10
210.995175672689
 20
15
 30
0
 40
14.99999999999974
 50
130.1709933307093
 51
149.9716332704579
  0
ARC
  8
1
 62
7
 10
211.0000000000001
 20
87.00814382286168
 30
0
 40
4.81428571430074
 50
281.9884867451955
 51
301.2844929143108
  0
ARC
  8
1
 62
7
 10
211.0000000000001
 20
87.00814382286168
 30
0
 40
4.81428571430074
 50
258.0115132548045
 51
281.9884867451955
  0
ARC
  8
1
 62
7
 10
211.0000000000001
 20
87.00814382286168
 30
0
 40
4.81428571430047
 50
238.7155070856893
 51
258.0115132548045
  0
ARC
  8
1
 62
7
 10
210.995175672689
 20
15
 30
0
 40
15.59999999999939
 50
341.3060590766758
 51
18.69394092332346
  0
ARC
  8
1
 62
7
 10
210.995175672689
 20
15
 30
0
 40
15.60000000000023
 50
161.3060590766777
 51
198.6939409233231
  0
ARC
  8
1
 62
7
 10
210.995175672689
 20
15
 30
0
 40
16.99999999999967
 50
81.54348066472933
 51
86.29003410793645
  0
ARC
  8
1
 62
7
 10
210.995175672689
 20
15
 30
0
 40
16.60000000000059
 50
335.058875241072
 51
342.4700182669261
  0
ARC
  8
1
 62
7
 10
224.995175672689
 20
21.99999999999989
 30
0
 40
2
 50
180
 51
270
  0
ARC
  8
1
 62
7
 10
210.995175672689
 20
15
 30
0
 40
18.60000000000013
 50
133.464023498339
 51
164.4061042595312
  0
ARC
  8
1
 62
7
 10
210.995175672689
 20
15
 30
0
 40
16.60000000000055
 50
155.0588752410728
 51
162.4700182669279
  0
ARC
  8
1
 62
7
 10
210.995175672689
 20
15
 30
0
 40
18.59999999999991
 50
164.4061042595312
 51
195.5938957404695
  0
ARC
  8
1
 62
7
 10
196.995175672689
 20
7.999999999999886
 30
0
 40
2
 50
0
 51
90
  0
ARC
  8
1
 62
7
 10
210.995175672689
 20
15
 30
0
 40
15.00000000000029
 50
152.1818607153471
 51
199.4712206344898
  0
ARC
  8
1
 62
7
 10
210.995175672689
 20
15
 30
0
 40
17.00000000000005
 50
261.5434806647295
 51
266.6277133165661
  0
ARC
  8
1
 62
7
 10
210.995175672689
 20
15
 30
0
 40
17.00000000000028
 50
296.7051315194622
 51
307.4280055430426
  0
ARC
  8
1
 62
7
 10
210.995175672689
 20
15
 30
0
 40
18.59999999999962
 50
313.4640234983364
 51
46.53597650166314
  0
ARC
  8
1
 62
7
 10
210.995175672689
 20
15
 30
0
 40
18.59999999999997
 50
195.5938957404695
 51
226.5359765016615
  0
ARC
  8
1
 62
7
 10
210.995175672689
 20
15
 30
0
 40
17.00000000000054
 50
116.7051315194654
 51
127.4280055430429
  0
ARC
  8
1
 62
7
 10
210.995175672689
 20
15
 30
0
 40
9.000000000000229
 50
128.9424412689843
 51
231.0575587310166
  0
ARC
  8
1
 62
7
 10
210.995175672689
 20
15
 30
0
 40
8.999999999999796
 50
308.9424412689786
 51
51.05755873102049
  0
ARC
  8
1
 62
7
 10
210.995175672689
 20
15
 30
0
 40
16.99999999999948
 50
92.8659839826019
 51
93.70996589206986
  0
ARC
  8
1
 62
7
 10
210.995175672689
 20
15
 30
0
 40
16.99999999999962
 50
86.29003410793645
 51
87.13401601740441
  0
ARC
  8
1
 62
7
 10
210.995175672689
 20
15
 30
0
 40
16.99999999999996
 50
266.6277133165661
 51
267.1340160173982
  0
ARC
  8
1
 62
7
 10
210.995175672689
 20
15
 30
0
 40
16.99999999999982
 50
272.8659839825955
 51
273.3722866834339
  0
ARC
  8
1
 62
7
 10
210.995175672689
 20
15
 30
0
 40
16.99999999999947
 50
232.5719944569604
 51
243.2948684805349
  0
ARC
  8
1
 62
7
 10
210.995175672689
 20
15
 30
0
 40
18.60000000000029
 50
226.5359765016615
 51
245.2248645654895
  0
ARC
  8
1
 62
7
 10
210.995175672689
 20
15
 30
0
 40
18.58741151126338
 50
277.7296870108225
 51
293.8513695232647
  0
ARC
  8
1
 62
7
 10
210.995175672689
 20
15
 30
0
 40
18.59999999999947
 50
294.7751354345078
 51
313.4640234983364
  0
ARC
  8
1
 62
7
 10
210.995175672689
 20
15
 30
0
 40
17.00000000000013
 50
232.5719944569575
 51
243.2948684805349
  0
ARC
  8
1
 62
7
 10
210.995175672689
 20
15
 30
0
 40
17.00000000000005
 50
278.4565193352705
 51
283.1631328694728
  0
ARC
  8
1
 62
7
 10
210.995175672689
 20
15
 30
0
 40
18.58741151126299
 50
97.7296870108227
 51
113.8513695232677
  0
ARC
  8
1
 62
7
 10
210.995175672689
 20
15
 30
0
 40
18.59999999999951
 50
114.775135434511
 51
133.464023498339
  0
ARC
  8
1
 62
7
 10
210.995175672689
 20
15
 30
0
 40
18.59999999999946
 50
46.53597650166314
 51
65.2248645654917
  0
ARC
  8
1
 62
7
 10
210.995175672689
 20
15
 30
0
 40
16.99999999999967
 50
98.45651933527067
 51
103.1631328694756
  0
ARC
  8
1
 62
7
 10
210.995175672689
 20
15
 30
0
 40
16.99999999999944
 50
52.57199445695934
 51
63.29486848053751
  0
ARC
  8
1
 62
7
 10
210.995175672689
 20
15
 30
0
 40
16.99999999999939
 50
87.13401601740441
 51
93.70996589206986
  0
ARC
  8
1
 62
7
 10
210.995175672689
 20
15
 30
0
 40
16.99999999999991
 50
267.1340160173982
 51
272.8659839825955
  0
ARC
  8
1
 62
7
 10
210.995175672689
 20
15
 30
0
 40
18.58741151126299
 50
82.2703129891773
 51
97.7296870108227
  0
ARC
  8
1
 62
7
 10
210.995175672689
 20
15
 30
0
 40
16.99999999999974
 50
93.70996589206986
 51
98.45651933527067
  0
ARC
  8
1
 62
7
 10
210.995175672689
 20
15
 30
0
 40
16.99999999999958
 50
76.83686713052332
 51
81.54348066472933
  0
ARC
  8
1
 62
7
 10
210.995175672689
 20
15
 30
0
 40
18.58741151126254
 50
66.14863047673502
 51
82.2703129891773
  0
ARC
  8
1
 62
7
 10
210.995175672689
 20
15
 30
0
 40
16.99999999999987
 50
256.8368671305239
 51
261.5434806647295
  0
ARC
  8
1
 62
7
 10
210.995175672689
 20
15
 30
0
 40
18.58741151126313
 50
246.1486304767326
 51
262.2703129891775
  0
ARC
  8
1
 62
7
 10
210.995175672689
 20
15
 30
0
 40
18.58741151126338
 50
262.2703129891775
 51
277.7296870108225
  0
ARC
  8
1
 62
7
 10
210.995175672689
 20
15
 30
0
 40
16.99999999999996
 50
273.3722866834339
 51
278.4565193352705
  0
ARC
  8
1
 62
7
 10
210.995175672689
 20
15
 30
0
 40
14.99999999999955
 50
332.1818607153447
 51
19.47122063449135
  0
CIRCLE
  8
1
 62
7
 10
-135
 20
27.5
 30
0
 40
3
  0
CIRCLE
  8
1
 62
7
 10
-93.99999999999997
 20
27.5
 30
0
 40
3.0000000000001
  0
CIRCLE
  8
1
 62
7
 10
-114.5000000000001
 20
25
 30
0
 40
3
  0
CIRCLE
  8
1
 62
7
 10
-114.5000000000001
 20
25
 30
0
 40
5.249999999999901
  0
CIRCLE
  8
1
 62
7
 10
-114.5000000000001
 20
-8.5
 30
0
 40
2.999999999999901
  0
CIRCLE
  8
1
 62
7
 10
-139.25
 20
-9.75
 30
0
 40
5.75
  0
CIRCLE
  8
1
 62
3
 10
-89.74999999999997
 20
39.75
 30
0
 40
2
  0
CIRCLE
  8
1
 62
7
 10
-89.74999999999997
 20
39.75
 30
0
 40
1.625
  0
CIRCLE
  8
1
 62
3
 10
-139.25
 20
39.75
 30
0
 40
2
  0
CIRCLE
  8
1
 62
7
 10
-139.25
 20
39.75
 30
0
 40
1.625
  0
CIRCLE
  8
1
 62
3
 10
-139.25
 20
-9.75
 30
0
 40
2
  0
CIRCLE
  8
1
 62
7
 10
-139.25
 20
-9.75
 30
0
 40
1.625
  0
CIRCLE
  8
1
 62
7
 10
-89.74999999999997
 20
-9.75
 30
0
 40
1.625
  0
CIRCLE
  8
1
 62
3
 10
-89.74999999999997
 20
-9.75
 30
0
 40
2
  0
CIRCLE
  8
1
 62
7
 10
-139.25
 20
39.75
 30
0
 40
5.75
  0
CIRCLE
  8
1
 62
7
 10
-89.74999999999997
 20
39.75
 30
0
 40
5.75
  0
CIRCLE
  8
1
 62
7
 10
-89.74999999999997
 20
-9.75
 30
0
 40
5.75
  0
CIRCLE
  8
1
 62
7
 10
-114.5000000000001
 20
25
 30
0
 40
9.0000000000001
  0
CIRCLE
  8
1
 62
4
 10
206.495175672689
 20
3.199999999999392
 30
0
 40
0.5
  0
CIRCLE
  8
1
 62
4
 10
210.995175672689
 20
3.199999999999704
 30
0
 40
0.5
  0
CIRCLE
  8
1
 62
4
 10
215.495175672689
 20
26.7999999999999
 30
0
 40
0.5
  0
CIRCLE
  8
1
 62
4
 10
210.995175672689
 20
26.7999999999999
 30
0
 40
0.5
  0
CIRCLE
  8
1
 62
4
 10
215.495175672689
 20
3.199999999999989
 30
0
 40
0.5
  0
CIRCLE
  8
1
 62
7
 10
211.0000000000001
 20
68.4938581085587
 30
0
 40
0.650000000000091
  0
CIRCLE
  8
1
 62
7
 10
210.995175672689
 20
15
 30
0
 40
1.99999999999989
  0
CIRCLE
  8
1
 62
7
 10
224.995175672689
 20
21.99999999999989
 30
0
 40
0.8500000000000796
  0
CIRCLE
  8
1
 62
7
 10
196.995175672689
 20
7.999999999999886
 30
0
 40
0.8499999999999091
  0
CIRCLE
  8
1
 62
7
 10
199.5045090259039
 20
5.358185854701901
 30
0
 40
1.25
  0
CIRCLE
  8
1
 62
7
 10
199.5045090259039
 20
24.6418141452979
 30
0
 40
1.25
  0
CIRCLE
  8
1
 62
7
 10
222.4858423194731
 20
5.358185854701901
 30
0
 40
1.5
  0
CIRCLE
  8
1
 62
7
 10
222.4858423194731
 20
5.358185854701901
 30
0
 40
1.25
  0
CIRCLE
  8
1
 62
7
 10
222.4858423194731
 20
24.6418141452979
 30
0
 40
1.5
  0
CIRCLE
  8
1
 62
7
 10
222.4858423194731
 20
24.6418141452979
 30
0
 40
1.25
  0
CIRCLE
  8
1
 62
7
 10
199.5045090259039
 20
5.358185854701901
 30
0
 40
1.5
  0
CIRCLE
  8
1
 62
7
 10
199.5045090259039
 20
24.6418141452979
 30
0
 40
1.5
  0
CIRCLE
  8
1
 62
7
 10
210.995175672689
 20
15
 30
0
 40
7.99999999999989
  0
CIRCLE
  8
1
 62
7
 10
210.995175672689
 20
15
 30
0
 40
3.74999999999989
  0
CIRCLE
  8
1
 62
4
 10
206.495175672689
 20
26.7999999999999
 30
0
 40
0.5
  0
CIRCLE
  8
1
 62
4
 10
219.4249861031249
 20
22.24850539156878
 30
0
 40
1
  0
CIRCLE
  8
1
 62
4
 10
202.5653652422509
 20
7.751494608430789
 30
0
 40
1
  0
POLYLINE
  8
1
 62
7
 66
1
  0
VERTEX
  8
1
 10
207.2404434584139
 20
73.8584733016184
 30
0
 42
-0.04341380924520732
  0
VERTEX
  8
1
 10
207.77667127905
 20
73.72304005862034
 30
0
 42
-0.0358691070685297
  0
VERTEX
  8
1
 10
208.2493949103707
 20
73.51700668588623
 30
0
 42
-0.02357268601567117
  0
VERTEX
  8
1
 10
208.6762938712654
 20
73.26552354008952
 30
0
 42
-0.008885461588843877
  0
VERTEX
  8
1
 10
209.0750476806234
 20
72.99374097790368
 30
0
 42
0.007087923818207437
  0
VERTEX
  8
1
 10
209.463335857334
 20
72.72680935600212
 30
0
 42
0.0241608475144209
  0
VERTEX
  8
1
 10
209.8588379202868
 20
72.48987903105837
 30
0
 42
0.04127268643166267
  0
VERTEX
  8
1
 10
210.2792333883709
 20
72.30810035974579
 30
0
 42
0.05439822759864293
  0
VERTEX
  8
1
 10
210.7422017804758
 20
72.20662369873791
 30
0
  0
VERTEX
  8
1
 10
210.995175672689
 20
72.19385810855869
 30
0
  0
SEQEND
  8
1
  0
POLYLINE
  8
1
 62
7
 66
1
  0
VERTEX
  8
1
 10
214.749907886964
 20
73.8584733016184
 30
0
 42
0.04341380924519186
  0
VERTEX
  8
1
 10
214.213680066328
 20
73.72304005862034
 30
0
 42
0.03586910706856521
  0
VERTEX
  8
1
 10
213.7409564350072
 20
73.51700668588623
 30
0
 42
0.0235726860156684
  0
VERTEX
  8
1
 10
213.3140574741125
 20
73.26552354008952
 30
0
 42
0.008885461588947491
  0
VERTEX
  8
1
 10
212.9153036647544
 20
72.99374097790367
 30
0
 42
-0.007087923818162704
  0
VERTEX
  8
1
 10
212.5270154880435
 20
72.72680935600212
 30
0
 42
-0.02416084751425818
  0
VERTEX
  8
1
 10
212.1315134250908
 20
72.48987903105837
 30
0
 42
-0.04127268643157952
  0
VERTEX
  8
1
 10
211.7111179570067
 20
72.30810035974579
 30
0
 42
-0.05439822759879626
  0
VERTEX
  8
1
 10
211.248149564902
 20
72.20662369873793
 30
0
  0
VERTEX
  8
1
 10
210.995175672689
 20
72.19385810855869
 30
0
  0
SEQEND
  8
1
  0
POLYLINE
  8
1
 62
2
 66
1
  0
VERTEX
  8
1
 10
229.6
 20
88.9944915864007
 30
0
 42
0.05831236789117263
  0
VERTEX
  8
1
 10
226.2093757571177
 20
90.39259552434385
 30
0
 42
0.05241242701579127
  0
VERTEX
  8
1
 10
222.7994388478322
 20
90.95140116546152
 30
0
 42
0.03924392284170458
  0
VERTEX
  8
1
 10
219.3772138983489
 20
90.87207080485318
 30
0
 42
0.02405152169742809
  0
VERTEX
  8
1
 10
215.9497255348731
 20
90.35576673761825
 30
0
 42
0.009510970244982655
  0
VERTEX
  8
1
 10
212.52399838361
 20
89.60365125885619
 30
0
 42
-0.004375860255044459
  0
VERTEX
  8
1
 10
209.1070570707652
 20
88.81688666366642
 30
0
 42
-0.01865443781718197
  0
VERTEX
  8
1
 10
205.7059262225439
 20
88.19663524714844
 30
0
 42
-0.03412685018229326
  0
VERTEX
  8
1
 10
202.3276304651513
 20
87.94405930440163
 30
0
 42
-0.04977840459140835
  0
VERTEX
  8
1
 10
198.9791944247929
 20
88.26032113052546
 30
0
 42
-0.06107461418712028
  0
VERTEX
  8
1
 10
195.667642727674
 20
89.34658302061936
 30
0
 42
-0.0623001376868158
  0
VERTEX
  8
1
 10
192.3999999999999
 20
91.4040072697828
 30
0
  0
SEQEND
  8
1
  0
ARC
  8
1
 62
7
 10
-136.4
 20
27.69999999999999
 30
0
 40
0.1000000000000227
 50
90
 51
180
  0
ARC
  8
1
 62
7
 10
-136.4
 20
27.30000000000001
 30
0
 40
0.09999999999999432
 50
180
 51
270
  0
ARC
  8
1
 62
7
 10
-135.2
 20
26.10000000000002
 30
0
 40
0.1000000000000227
 50
180
 51
270
  0
ARC
  8
1
 62
7
 10
-134.8
 20
26.10000000000002
 30
0
 40
0.1000000000000192
 50
270
 51
0
  0
ARC
  8
1
 62
7
 10
-133.6
 20
27.30000000000001
 30
0
 40
0.1000000000000227
 50
270
 51
0
  0
ARC
  8
1
 62
7
 10
-133.6
 20
27.69999999999999
 30
0
 40
0.09999999999999432
 50
0
 51
90
  0
ARC
  8
1
 62
7
 10
-134.8
 20
28.90000000000003
 30
0
 40
0.1000000000000227
 50
0
 51
90
  0
ARC
  8
1
 62
7
 10
-135.2
 20
28.90000000000003
 30
0
 40
0.09999999999996945
 50
90
 51
180
  0
ARC
  8
1
 62
7
 10
-95.39999999999995
 20
27.69999999999999
 30
0
 40
0.1000000000000227
 50
90
 51
180
  0
ARC
  8
1
 62
7
 10
-95.39999999999995
 20
27.30000000000001
 30
0
 40
0.1000000000000227
 50
180
 51
270
  0
ARC
  8
1
 62
7
 10
-94.19999999999996
 20
26.10000000000002
 30
0
 40
0.1000000000000227
 50
180
 51
270
  0
ARC
  8
1
 62
7
 10
-93.79999999999998
 20
26.10000000000002
 30
0
 40
0.1000000000000192
 50
270
 51
0
  0
ARC
  8
1
 62
7
 10
-92.59999999999994
 20
27.30000000000001
 30
0
 40
0.1000000000000227
 50
270
 51
0
  0
ARC
  8
1
 62
7
 10
-92.59999999999994
 20
27.69999999999999
 30
0
 40
0.09999999999996589
 50
0
 51
90
  0
ARC
  8
1
 62
7
 10
-93.79999999999998
 20
28.90000000000003
 30
0
 40
0.1000000000000227
 50
0
 51
90
  0
ARC
  8
1
 62
7
 10
-94.19999999999996
 20
28.90000000000003
 30
0
 40
0.09999999999996945
 50
90
 51
180
  0
ARC
  8
1
 62
7
 10
-115.9000000000001
 20
-8.300000000000011
 30
0
 40
0.1000000000000227
 50
90
 51
180
  0
ARC
  8
1
 62
7
 10
-115.9000000000001
 20
-8.699999999999989
 30
0
 40
0.09999999999999432
 50
180
 51
270
  0
ARC
  8
1
 62
7
 10
-114.7000000000001
 20
-9.899999999999977
 30
0
 40
0.09999999999999432
 50
180
 51
270
  0
ARC
  8
1
 62
7
 10
-114.3000000000001
 20
-9.899999999999977
 30
0
 40
0.1000000000000227
 50
270
 51
0
  0
ARC
  8
1
 62
7
 10
-113.1000000000001
 20
-8.699999999999989
 30
0
 40
0.1000000000000227
 50
270
 51
0
  0
ARC
  8
1
 62
7
 10
-113.1000000000001
 20
-8.300000000000011
 30
0
 40
0.09999999999999432
 50
0
 51
90
  0
ARC
  8
1
 62
7
 10
-114.3000000000001
 20
-7.099999999999966
 30
0
 40
0.09999999999999432
 50
0
 51
90
  0
ARC
  8
1
 62
7
 10
-114.7000000000001
 20
-7.099999999999966
 30
0
 40
0.09999999999996589
 50
90
 51
180
  0
ARC
  8
1
 62
7
 10
87.10385605972293
 20
-7.095413033448459
 30
0
 40
0.7999999999999963
 50
21.50479479967086
 51
87.86864827538348
  0
ARC
  8
1
 62
7
 10
87.10385605972293
 20
-12.40458696655157
 30
0
 40
0.7999999999999967
 50
272.1313517246165
 51
338.4952052003294
  0
ARC
  8
1
 62
7
 10
85.90000000000001
 20
-13.15000000000001
 30
0
 40
0.09999999999999432
 50
180
 51
275.0000000000044
  0
ARC
  8
1
 62
7
 10
85.90000000000001
 20
-6.350000000000016
 30
0
 40
0.1000000000000032
 50
84.99999999999545
 51
180
  0
ARC
  8
1
 62
7
 10
87.10385605972293
 20
42.40458696655153
 30
0
 40
0.7999999999999987
 50
21.50479479967134
 51
87.86864827538345
  0
ARC
  8
1
 62
7
 10
87.10385605972293
 20
37.09541303344842
 30
0
 40
0.7999999999999967
 50
272.1313517246165
 51
338.4952052003292
  0
ARC
  8
1
 62
7
 10
85.90000000000001
 20
36.34999999999998
 30
0
 40
0.09999999999999432
 50
180
 51
275.0000000000046
  0
ARC
  8
1
 62
7
 10
85.90000000000001
 20
43.14999999999998
 30
0
 40
0.09999999999999609
 50
84.99999999999511
 51
180
  0
ARC
  8
1
 62
7
 10
57.79999999999978
 20
-14.5
 30
0
 40
1
 50
180
 51
270
  0
ARC
  8
1
 62
7
 10
57.79999999999978
 20
-5
 30
0
 40
1
 50
90
 51
180
  0
ARC
  8
1
 62
7
 10
57.79999999999978
 20
35
 30
0
 40
1
 50
180
 51
270
  0
ARC
  8
1
 62
7
 10
57.79999999999989
 20
44.5
 30
0
 40
1
 50
90
 51
180
  0
ARC
  8
1
 62
7
 10
86.80000000000001
 20
-3.5
 30
0
 40
0.5
 50
270
 51
0
  0
ARC
  8
1
 62
7
 10
86.30000000000001
 20
-4.5
 30
0
 40
0.5
 50
90
 51
180
  0
ARC
  8
1
 62
7
 10
86.80000000000001
 20
33.5
 30
0
 40
0.5
 50
0
 51
90
  0
ARC
  8
1
 62
7
 10
86.30000000000001
 20
34.5
 30
0
 40
0.5
 50
180
 51
270
  0
ARC
  8
1
 62
7
 10
207.2951756726891
 20
74.1534383583973
 30
0
 40
0.3000000000001251
 50
180
 51
259.4880431033453
  0
ARC
  8
1
 62
7
 10
214.695175672689
 20
74.1534383583973
 30
0
 40
0.3000000000000312
 50
280.5119568966119
 51
0
  0
ARC
  8
1
 62
7
 10
140.0000000000001
 20
8
 30
0
 40
1
 50
270
 51
0
  0
ARC
  8
1
 62
7
 10
140.0000000000001
 20
21.99999999999989
 30
0
 40
1
 50
6.310220488023617e-012
 51
90
  0
ARC
  8
1
 62
7
 10
204.0000000000001
 20
72.69385810855869
 30
0
 40
1
 50
180
 51
270
  0
ARC
  8
1
 62
7
 10
218.0000000000001
 20
72.69385810855869
 30
0
 40
1
 50
270
 51
0
  0
ARC
  8
1
 62
7
 10
89.30000000000001
 20
-1.599999999999994
 30
0
 40
2
 50
180
 51
270
  0
ARC
  8
1
 62
7
 10
89.30000000000001
 20
31.59999999999999
 30
0
 40
1.999999999999996
 50
90
 51
180
  0
ARC
  8
1
 62
7
 10
199.995175672689
 20
24
 30
0
 40
2.00000000000011
 50
270
 51
0
  0
ARC
  8
1
 62
7
 10
199.995175672689
 20
6
 30
0
 40
2
 50
0
 51
90
  0
ARC
  8
1
 62
7
 10
204.995175672689
 20
22.99999999999989
 30
0
 40
1
 50
180
 51
270
  0
ARC
  8
1
 62
7
 10
204.995175672689
 20
24.99999999999989
 30
0
 40
1
 50
90
 51
180
  0
ARC
  8
1
 62
7
 10
204.995175672689
 20
4.999999999999886
 30
0
 40
1
 50
180
 51
270
  0
ARC
  8
1
 62
7
 10
204.995175672689
 20
6.999999999999886
 30
0
 40
1
 50
90
 51
180
  0
ARC
  8
1
 62
7
 10
221.995175672689
 20
6
 30
0
 40
1.999999999999886
 50
90
 51
180
  0
ARC
  8
1
 62
7
 10
221.995175672689
 20
24
 30
0
 40
2
 50
180
 51
270
  0
ARC
  8
1
 62
7
 10
216.995175672689
 20
4.999999999999886
 30
0
 40
1
 50
270
 51
0
  0
ARC
  8
1
 62
7
 10
216.995175672689
 20
6.999999999999886
 30
0
 40
1
 50
0
 51
90
  0
ARC
  8
1
 62
7
 10
216.995175672689
 20
22.99999999999989
 30
0
 40
1
 50
270
 51
0
  0
ARC
  8
1
 62
7
 10
216.995175672689
 20
24.99999999999989
 30
0
 40
1
 50
0
 51
90
  0
ARC
  8
1
 62
7
 10
204.478890044193
 20
2.046698428282895
 30
0
 40
2.500000000000987
 50
243.2948684805115
 51
284.6557406973737
  0
ARC
  8
1
 62
7
 10
204.457869373548
 20
0.8358330159798015
 30
0
 40
3.00000000000026
 50
250.957649536914
 51
285.0653717628101
  0
ARC
  8
1
 62
7
 10
210.995175672689
 20
-3.100000000000193
 30
0
 40
2.499999999999722
 50
74.10973297715053
 51
105.8902670228244
  0
ARC
  8
1
 62
7
 10
210.995175672689
 20
-3.100000000000193
 30
0
 40
2.499999999999722
 50
74.10973297715053
 51
105.8902670228244
  0
ARC
  8
1
 62
7
 10
217.532481971829
 20
0.8358330159798015
 30
0
 40
3.000000000000752
 50
254.9346282372071
 51
289.0423504630865
  0
ARC
  8
1
 62
7
 10
217.532481971829
 20
0.8358330159798015
 30
0
 40
3.000000000000269
 50
289.0423504630865
 51
294.7751354345049
  0
ARC
  8
1
 62
7
 10
210.995175672689
 20
-4.000000000000114
 30
0
 40
5.000000000000155
 50
76.6758163180703
 51
103.3241836819303
  0
ARC
  8
1
 62
7
 10
210.995175672689
 20
-4.000000000000114
 30
0
 40
5.000000000000155
 50
76.6758163180703
 51
103.3241836819303
  0
ARC
  8
1
 62
7
 10
217.5114613011861
 20
2.046698428282895
 30
0
 40
2.500000000000474
 50
255.3442593025791
 51
296.7051315194454
  0
ARC
  8
1
 62
7
 10
217.5114613011861
 20
27.95330157171671
 30
0
 40
2.50000000000022
 50
63.29486848055657
 51
104.6557406974211
  0
ARC
  8
1
 62
7
 10
210.995175672689
 20
33.99999999999989
 30
0
 40
5.000000000000369
 50
256.6758163180702
 51
283.3241836819291
  0
ARC
  8
1
 62
7
 10
204.478890044193
 20
27.95330157171671
 30
0
 40
2.4999999999999
 50
75.34425930262613
 51
116.7051315194865
  0
ARC
  8
1
 62
7
 10
204.457869373548
 20
29.1641669840198
 30
0
 40
3.000000000000968
 50
74.93462823718969
 51
109.0423504630849
  0
ARC
  8
1
 62
7
 10
210.995175672689
 20
33.0999999999998
 30
0
 40
2.499999999999445
 50
254.1097329771758
 51
285.8902670228492
  0
ARC
  8
1
 62
7
 10
210.995175672689
 20
33.0999999999998
 30
0
 40
2.499999999999445
 50
254.1097329771758
 51
285.8902670228492
  0
ARC
  8
1
 62
7
 10
217.532481971829
 20
29.1641669840198
 30
0
 40
3.000000000000433
 50
70.95764953691457
 51
105.065371762793
  0
ARC
  8
1
 62
7
 10
201.09517567269
 20
14.0999999999998
 30
0
 40
0.5
 50
0
 51
90
  0
ARC
  8
1
 62
7
 10
197.59517567269
 20
14.0999999999998
 30
0
 40
0.5
 50
90
 51
180
  0
ARC
  8
1
 62
7
 10
197.59517567269
 20
15.89999999999981
 30
0
 40
0.5
 50
180
 51
270
  0
ARC
  8
1
 62
7
 10
201.09517567269
 20
15.89999999999981
 30
0
 40
0.5
 50
270
 51
0
  0
ARC
  8
1
 62
7
 10
220.895175672689
 20
14.0999999999998
 30
0
 40
0.5
 50
90
 51
180
  0
ARC
  8
1
 62
7
 10
224.395175672689
 20
14.0999999999998
 30
0
 40
0.5
 50
0
 51
90
  0
ARC
  8
1
 62
7
 10
224.395175672689
 20
15.89999999999981
 30
0
 40
0.5
 50
270
 51
0
  0
ARC
  8
1
 62
7
 10
220.895175672689
 20
15.89999999999981
 30
0
 40
0.5
 50
180
 51
270
  0
LINE
  8
1
 62
2
 10
82.7146444988139
 20
55.5
 30
0
 11
60.60495539128785
 21
55.5
 31
0
  0
LINE
  8
1
 62
2
 10
60.60495539128785
 20
55.5
 30
0
 11
69.74201605881976
 21
46.3629393324681
 31
0
  0
SOLID
  8
1
 62
2
 10
66.94131901635217
 20
48.51198975830634
 30
0
 11
67.59296563298152
 21
49.16363637493569
 31
0
 12
69.74201605881976
 22
46.3629393324681
 32
0
 13
69.74201605881976
 23
46.3629393324681
 33
0
  0
LINE
  8
1
 62
2
 10
247.373779583505
 20
-7.965356541246507
 30
0
 11
228.9105322139351
 21
-7.965356541246507
 31
0
  0
LINE
  8
1
 62
2
 10
228.9105322139351
 20
-7.965356541246507
 30
0
 11
215.495175672689
 21
5.449999999999704
 31
0
  0
SOLID
  8
1
 62
2
 10
218.2958727151566
 20
3.300949574161453
 30
0
 11
217.6442260985272
 21
2.649302957532104
 31
0
 12
215.495175672689
 22
5.449999999999704
 32
0
 13
215.495175672689
 23
5.449999999999704
 33
0
  0
LINE
  8
1
 62
2
 10
176.6179768547441
 20
35.96395144837498
 30
0
 11
195.081224224314
 21
35.96395144837498
 31
0
  0
LINE
  8
1
 62
2
 10
195.081224224314
 20
35.96395144837498
 30
0
 11
206.495175672689
 21
24.5499999999999
 31
0
  0
SOLID
  8
1
 62
2
 10
203.6944786302214
 20
26.69905042583816
 30
0
 11
204.3461252468508
 21
27.3506970424675
 31
0
 12
206.495175672689
 22
24.5499999999999
 32
0
 13
206.495175672689
 23
24.5499999999999
 33
0
  0
LINE
  8
1
 62
2
 10
118.387862594611
 20
43.59999999999998
 30
0
 11
95.86060609144501
 21
43.60000000000018
 31
0
  0
LINE
  8
1
 62
2
 10
95.86060609144501
 20
43.60000000000018
 30
0
 11
110.7349671166552
 21
28.72563897479
 31
0
  0
SOLID
  8
1
 62
2
 10
107.9342700741876
 20
30.87468940062824
 30
0
 11
108.585916690817
 21
31.52633601725759
 31
0
 12
110.7349671166552
 22
28.72563897479
 32
0
 13
110.7349671166552
 23
28.72563897479
 33
0
  0
TEXT
  8
1
 62
2
 10
51.58513834705187
 20
55.76610382999953
 30
0
 40
3.5
  1
ネームプレート
 41
0.8100000000000001
 72
1
 73
2
 11
71.43013834705187
 21
57.51610382999953
 31
0
  0
TEXT
  8
1
 62
4
 10
220.421664546997
 20
21.17066370655178
 30
0
 40
2
  1
+
 50
90
 41
0.9
  7
COMPLEX
 72
1
 73
2
 11
219.421664546997
 21
22.07066370655178
 31
0
  0
TEXT
  8
1
 62
4
 10
203.91868679838
 20
6.679336293448904
 30
0
 40
2
  1
-
 50
90
 41
0.9
  7
COMPLEX
 72
1
 73
2
 11
202.91868679838
 21
7.579336293448904
 31
0
  0
TEXT
  8
1
 62
2
 10
171.71746745157
 20
37.14313040960221
 30
0
 40
3.5
  1
(-)タンシ
 41
0.9
 72
1
 73
2
 11
185.89246745157
 21
38.89313040960221
 31
0
  0
TEXT
  8
1
 62
2
 10
224.010022810761
 20
-7.627411195118299
 30
0
 40
3.5
  1
(+)タンシ
 41
0.9
 72
1
 73
2
 11
238.185022810761
 21
-5.877411195118299
 31
0
  0
TEXT
  8
1
 62
2
 10
187.22209829044
 20
51.08205106992489
 30
0
 40
2
  1
±0.05
 41
0.9
 72
1
 73
2
 11
192.62209829044
 21
52.08205106992489
 31
0
  0
TEXT
  8
1
 62
2
 10
86.840789047209
 20
43.86610382999971
 30
0
 40
3.5
  1
ネームプレート
 41
0.8100000000000001
 72
1
 73
2
 11
106.685789047209
 21
45.61610382999971
 31
0
  0
TEXT
  8
1
 62
7
 10
111.1649307842685
 20
85.68931355180801
 30
0
 40
4
  1
ＤＭＥ３７Ｂ６Ｈ
 41
0.9
 72
1
 73
2
 11
139.9649307842685
 21
87.68931355180801
 31
0
  0
DIMENSION
  8
1
  6
CONTINUOUS
 62
2
  2
*D0
  3
DMST_1
 10
141.0000000000001
 20
75.5
 30
0
 11
144.2
 21
78.09999999999999
 31
0
 12
0
 22
0
 32
0
 70
0
 13
147.3999999999999
 23
24.5
 33
0
 14
141.0000000000001
 24
22
 34
0
 53
0
  0
DIMENSION
  8
1
  6
CONTINUOUS
 62
2
  2
*D1
  3
DMST_2
 10
56.7999999999999
 20
65.5
 30
0
 11
71.29999999999996
 21
68.09999999999999
 31
0
 12
0
 22
0
 32
0
 70
0
 13
85.80000000000001
 23
45
 33
0
 14
56.79999999999989
 24
44.5
 34
0
 53
0
  0
DIMENSION
  8
1
  6
CONTINUOUS
 62
2
  2
*D2
  3
DMST_2
 10
31.79999999999989
 20
75.5
 30
0
 11
44.29999999999989
 21
78.09999999999999
 31
0
 12
0
 22
0
 32
0
 70
0
 13
56.79999999999989
 23
44.5
 33
0
 14
31.79999999999989
 24
27.5
 34
0
 53
0
  0
DIMENSION
  8
1
  6
CONTINUOUS
 62
2
  2
*D3
  3
DMST_2
 10
51.79999999999977
 20
65.5
 30
0
 11
54.29999999999983
 21
68.09999999999999
 31
0
 12
0
 22
0
 32
0
 70
0
 13
56.79999999999989
 23
44.5
 33
0
 14
51.79999999999978
 24
34
 34
0
 53
0
  0
DIMENSION
  8
1
  6
CONTINUOUS
 62
2
  2
*D4
  3
DMST_2
 10
1.799999999999891
 20
34
 30
0
 11
-0.8000000000001095
 21
41.0417260421333
 31
0
 12
0
 22
0
 32
0
 70
0
  1
%%c<>
 13
51.79999999999989
 23
16.0001839906908
 33
0
 14
51.79999999999978
 24
34
 34
0
 50
90
 53
0
  0
DIMENSION
  8
1
  6
CONTINUOUS
 62
2
  2
*D5
  3
DMST_3
 10
11.79999999999988
 20
28.00000000000023
 30
0
 11
8.399999999999883
 21
44
 31
0
 12
0
 22
0
 32
0
 70
0
  1
%%c<>
 13
31.79999999999989
 23
22.00000000000023
 33
0
 14
47.64057287393524
 24
28.00000000000023
 34
0
 50
90
 53
0
  0
DIMENSION
  8
1
  6
CONTINUOUS
 62
2
  2
*D6
  3
DMST_2
 10
-83.99999999999997
 20
65.5
 30
0
 11
-112.192602700346
 21
68.22877357454421
 31
0
 12
0
 22
0
 32
0
 70
0
  1
□<>
 13
-145.0000000000001
 23
39.75
 33
0
 14
-83.99999999999997
 24
39.75
 34
0
 53
0
  0
DIMENSION
  8
1
  6
CONTINUOUS
 62
2
  2
*D7
  3
DMST_1
 10
-73.99999999999997
 20
15
 30
0
 11
-76.59999999999997
 21
5.63254569261674
 31
0
 12
0
 22
0
 32
0
 70
0
 13
-102.9454185024993
 23
25
 33
0
 14
-80.8944887593822
 24
15
 34
0
 50
90
 53
0
  0
DIMENSION
  8
1
  6
CONTINUOUS
 62
2
  2
*D8
  3
DMST_4
 10
-63.99999999999996
 20
-9.75
 30
0
 11
-66.59999999999997
 21
15
 31
0
 12
0
 22
0
 32
0
 70
0
 13
-82.15571212396216
 23
39.75
 33
0
 14
-81.41979331410235
 24
-9.75
 34
0
 50
90
 53
0
  0
DIMENSION
  8
1
  6
CONTINUOUS
 62
2
  2
*D9
  3
DMST_4
 10
-139.25
 20
55.5
 30
0
 11
-114.5
 21
58.1
 31
0
 12
0
 22
0
 32
0
 70
0
 13
-89.74999999999997
 23
47.77579593310054
 33
0
 14
-139.25
 24
47.40783652817061
 34
0
 53
0
  0
DIMENSION
  8
1
  6
CONTINUOUS
 62
2
  2
*D10
  3
DMST_4
 10
21.79999999999988
 20
27.5
 30
0
 11
19.19999999999988
 21
44
 31
0
 12
0
 22
0
 32
0
 70
0
 13
31.79999999999989
 23
22.00000000000023
 33
0
 14
31.79999999999989
 24
27.5
 34
0
 50
90
 53
0
  0
DIMENSION
  8
1
  6
CONTINUOUS
 62
2
  2
*D11
  3
DMST_2
 10
31.79999999999988
 20
65.5
 30
0
 11
37.79999999999983
 21
68.09999999999999
 31
0
 12
0
 22
0
 32
0
 70
0
 13
43.79999999999978
 23
27.5
 33
0
 14
31.79999999999989
 24
27.5
 34
0
 53
0
  0
DIMENSION
  8
1
  6
CONTINUOUS
 62
2
  2
*D12
  3
DMST_5
 10
239.5951756726889
 20
5.724999999999822
 30
0
 11
236.995175672689
 21
14.9999999999998
 31
0
 12
0
 22
0
 32
0
 70
0
  1
18.6
 13
216.628969246475
 23
24.27499999999981
 33
0
 14
216.628969246475
 24
5.724999999999795
 34
0
 50
90
 53
0
  0
DIMENSION
  8
1
  6
CONTINUOUS
 62
2
  2
*D13
  3
DMST_2
 10
157.3999999999998
 20
6.999999999999972
 30
0
 11
154.3733333333331
 21
15
 31
0
 12
0
 22
0
 32
0
 70
0
  1
φ<>
 13
140.0000000000001
 23
23
 33
0
 14
140.0000000000001
 24
7
 34
0
 50
90
 53
0
  0
DIMENSION
  8
1
  6
CONTINUOUS
 62
2
  2
*D14
  3
DMST_2
 10
213.7499999999994
 20
43.90760699128541
 30
0
 11
223.4701682502301
 21
46.5076069912854
 31
0
 12
0
 22
0
 32
0
 70
0
  1
2-5.5
 13
208.2500000000001
 23
71.69385810855869
 33
0
 14
213.7500000000001
 24
71.6438581085587
 34
0
 53
0
  0
DIMENSION
  8
1
  6
CONTINUOUS
 62
2
  2
*D15
  3
DMST_2
 10
213.3749999999994
 20
52.85554879312742
 30
0
 11
231.4706809201101
 21
55.45554879312741
 31
0
 12
0
 22
0
 32
0
 70
0
  1
2-4.75XT.05
 13
208.6250000000001
 23
66.2938581085586
 33
0
 14
213.3750000000001
 24
66.2938581085586
 34
0
 53
0
  0
DIMENSION
  8
1
  6
CONTINUOUS
 62
2
  2
*D16
  3
DMST_1
 10
239.5999999999995
 20
71.69385810855866
 30
0
 11
236.8394460012201
 21
79.87816641697839
 31
0
 12
0
 22
0
 32
0
 70
0
 13
212.3750000000001
 23
65.2938581085586
 33
0
 14
218.0000000000001
 24
71.69385810855869
 34
0
 50
90
 53
0
  0
DIMENSION
  8
1
  6
CONTINUOUS
 62
2
  2
*D17
  3
DMST_2
 10
172.3999999999994
 20
71.6438581085587
 30
0
 11
169.7825174391801
 21
82.2993741986524
 31
0
 12
0
 22
0
 32
0
 70
0
  1
2-6.35
 13
209.6250000000001
 23
65.2938581085586
 33
0
 14
208.2500000000001
 24
71.6438581085587
 34
0
 50
90
 53
0
  0
DIMENSION
  8
1
  6
CONTINUOUS
 62
2
  2
*D18
  3
DMST_2
 10
182.3999999999995
 20
68.49385810855861
 30
0
 11
179.7831582765301
 21
80.93086545248841
 31
0
 12
0
 22
0
 32
0
 70
0
  1
2-3.2
 13
209.6250000000001
 23
65.2938581085586
 33
0
 14
210.155
 24
68.4938581085587
 34
0
 50
90
 53
0
  0
DIMENSION
  8
1
  6
CONTINUOUS
 62
2
  2
*D19
  3
DMST_2
 10
167.5999999999997
 20
-3.600000000000129
 30
0
 11
164.5733333333331
 21
14.99999999999989
 31
0
 12
0
 22
0
 32
0
 70
0
  1
φ<>
 13
129.8
 23
33.59999999999988
 33
0
 14
129.8
 24
-3.600000000000108
 34
0
 50
90
 53
0
  0
DIMENSION
  8
1
  6
CONTINUOUS
 62
2
  2
*D20
  3
DMST_5
 10
137.0000000000001
 20
65.5
 30
0
 11
132.61260531607
 21
68.09999999999999
 31
0
 12
0
 22
0
 32
0
 70
0
  1
(<>
 13
141.0000000000001
 23
22
 33
0
 14
137.0000000000001
 24
28.5
 34
0
 53
0
  0
DIMENSION
  8
1
  6
CONTINUOUS
 62
2
  2
*D21
  3
DMST_2
 10
141.0000000000001
 20
75.5
 30
0
 11
98.89999999999998
 21
78.09999999999999
 31
0
 12
0
 22
0
 32
0
 70
0
 13
56.79999999999989
 23
44.5
 33
0
 14
141.0000000000001
 24
22
 34
0
 53
0
  0
DIMENSION
  8
1
  6
CONTINUOUS
 62
2
  2
*D23
  3
DMST_6
 10
211.3731392348735
 20
69.02608654766939
 30
0
 11
180.22156960946
 21
52.2091078474499
 31
0
 12
0
 22
0
 32
0
 70
3
  1
1.3
 15
210.6268607651258
 25
67.96162966944867
 35
0
 40
0
 53
0
  0
INSERT
  8
1
  2
*D22
 10
0
 20
0
 30
0
  0
ENDSEC
  0
EOF
